  0
SECTION
  2
HEADER
  9
$ACADVER
  1
AC1015
  9
$ACADMAINTVER
 70
    20
  9
$DWGCODEPAGE
  3
ANSI_932
  9
$INSBASE
 10
0.0
 20
0.0
 30
0.0
  9
$EXTMIN
 10
352.4366920542757
 20
260.8325136612021
 30
0.0
  9
$EXTMAX
 10
772.4366920542757
 20
557.8325136612022
 30
0.0
  9
$LIMMIN
 10
0.0
 20
0.0
  9
$LIMMAX
 10
1189.0
 20
841.0
  9
$ORTHOMODE
 70
     1
  9
$REGENMODE
 70
     1
  9
$FILLMODE
 70
     1
  9
$QTEXTMODE
 70
     0
  9
$MIRRTEXT
 70
     1
  9
$LTSCALE
 40
1.0
  9
$ATTMODE
 70
     1
  9
$TEXTSIZE
 40
0.0
  9
$TRACEWID
 40
0.05
  9
$TEXTSTYLE
  7
STANDARD
  9
$CLAYER
  8
0
  9
$CELTYPE
  6
CONTINUOUS
  9
$CECOLOR
 62
   256
  9
$CELTSCALE
 40
1.0
  9
$DISPSILH
 70
     0
  9
$DIMSCALE
 40
1.0
  9
$DIMASZ
 40
2.5
  9
$DIMEXO
 40
0.625
  9
$DIMDLI
 40
3.75
  9
$DIMRND
 40
0.0
  9
$DIMDLE
 40
0.0
  9
$DIMEXE
 40
1.25
  9
$DIMTP
 40
0.0
  9
$DIMTM
 40
0.0
  9
$DIMTXT
 40
4.0
  9
$DIMCEN
 40
2.5
  9
$DIMTSZ
 40
0.0
  9
$DIMTOL
 70
     0
  9
$DIMLIM
 70
     0
  9
$DIMTIH
 70
     0
  9
$DIMTOH
 70
     0
  9
$DIMSE1
 70
     0
  9
$DIMSE2
 70
     0
  9
$DIMTAD
 70
     1
  9
$DIMZIN
 70
     8
  9
$DIMBLK
  1

  9
$DIMASO
 70
     1
  9
$DIMSHO
 70
     1
  9
$DIMPOST
  1

  9
$DIMAPOST
  1

  9
$DIMALT
 70
     0
  9
$DIMALTD
 70
     3
  9
$DIMALTF
 40
0.03937007874016
  9
$DIMLFAC
 40
1.0
  9
$DIMTOFL
 70
     1
  9
$DIMTVP
 40
0.0
  9
$DIMTIX
 70
     0
  9
$DIMSOXD
 70
     0
  9
$DIMSAH
 70
     0
  9
$DIMBLK1
  1

  9
$DIMBLK2
  1

  9
$DIMSTYLE
  2
外観図
  9
$DIMCLRD
 70
     0
  9
$DIMCLRE
 70
     0
  9
$DIMCLRT
 70
     4
  9
$DIMTFAC
 40
1.0
  9
$DIMGAP
 40
0.625
  9
$DIMJUST
 70
     0
  9
$DIMSD1
 70
     0
  9
$DIMSD2
 70
     0
  9
$DIMTOLJ
 70
     0
  9
$DIMTZIN
 70
     8
  9
$DIMALTZ
 70
     0
  9
$DIMALTTZ
 70
     0
  9
$DIMUPT
 70
     0
  9
$DIMDEC
 70
     2
  9
$DIMTDEC
 70
     2
  9
$DIMALTU
 70
     2
  9
$DIMALTTD
 70
     3
  9
$DIMTXSTY
  7
STANDARD
  9
$DIMAUNIT
 70
     0
  9
$DIMADEC
 70
     0
  9
$DIMALTRND
 40
0.0
  9
$DIMAZIN
 70
     0
  9
$DIMDSEP
 70
    44
  9
$DIMATFIT
 70
     3
  9
$DIMFRAC
 70
     0
  9
$DIMLDRBLK
  1

  9
$DIMLUNIT
 70
     2
  9
$DIMLWD
 70
    -2
  9
$DIMLWE
 70
    -2
  9
$DIMTMOVE
 70
     0
  9
$LUNITS
 70
     2
  9
$LUPREC
 70
     4
  9
$SKETCHINC
 40
0.1
  9
$FILLETRAD
 40
0.0
  9
$AUNITS
 70
     0
  9
$AUPREC
 70
     0
  9
$MENU
  1
acad
  9
$ELEVATION
 40
0.0
  9
$PELEVATION
 40
0.0
  9
$THICKNESS
 40
0.0
  9
$LIMCHECK
 70
     0
  9
$CHAMFERA
 40
0.0
  9
$CHAMFERB
 40
0.0
  9
$CHAMFERC
 40
0.0
  9
$CHAMFERD
 40
0.0
  9
$SKPOLY
 70
     0
  9
$TDCREATE
 40
2419282.952315023
  9
$TDUCREATE
 40
6.0000000000
  9
$TDUPDATE
 40
2460080.455025231
  9
$TDUUPDATE
 40
2460080.080025232
  9
$TDINDWG
 40
0.1004412963
  9
$TDUSRTIMER
 40
0.1004412963
  9
$USRTIMER
 70
     1
  9
$ANGBASE
 50
0.0
  9
$ANGDIR
 70
     0
  9
$PDMODE
 70
     0
  9
$PDSIZE
 40
0.0
  9
$PLINEWID
 40
0.0
  9
$SPLFRAME
 70
     0
  9
$SPLINETYPE
 70
     6
  9
$SPLINESEGS
 70
     8
  9
$HANDSEED
  5
10F5
  9
$SURFTAB1
 70
     6
  9
$SURFTAB2
 70
     6
  9
$SURFTYPE
 70
     6
  9
$SURFU
 70
     6
  9
$SURFV
 70
     6
  9
$UCSBASE
  2

  9
$UCSNAME
  2

  9
$UCSORG
 10
0.0
 20
0.0
 30
0.0
  9
$UCSXDIR
 10
1.0
 20
0.0
 30
0.0
  9
$UCSYDIR
 10
0.0
 20
1.0
 30
0.0
  9
$UCSORTHOREF
  2

  9
$UCSORTHOVIEW
 70
     0
  9
$UCSORGTOP
 10
0.0
 20
0.0
 30
0.0
  9
$UCSORGBOTTOM
 10
0.0
 20
0.0
 30
0.0
  9
$UCSORGLEFT
 10
0.0
 20
0.0
 30
0.0
  9
$UCSORGRIGHT
 10
0.0
 20
0.0
 30
0.0
  9
$UCSORGFRONT
 10
0.0
 20
0.0
 30
0.0
  9
$UCSORGBACK
 10
0.0
 20
0.0
 30
0.0
  9
$PUCSBASE
  2

  9
$PUCSNAME
  2

  9
$PUCSORG
 10
0.0
 20
0.0
 30
0.0
  9
$PUCSXDIR
 10
1.0
 20
0.0
 30
0.0
  9
$PUCSYDIR
 10
0.0
 20
1.0
 30
0.0
  9
$PUCSORTHOREF
  2

  9
$PUCSORTHOVIEW
 70
     0
  9
$PUCSORGTOP
 10
0.0
 20
0.0
 30
0.0
  9
$PUCSORGBOTTOM
 10
0.0
 20
0.0
 30
0.0
  9
$PUCSORGLEFT
 10
0.0
 20
0.0
 30
0.0
  9
$PUCSORGRIGHT
 10
0.0
 20
0.0
 30
0.0
  9
$PUCSORGFRONT
 10
0.0
 20
0.0
 30
0.0
  9
$PUCSORGBACK
 10
0.0
 20
0.0
 30
0.0
  9
$USERI1
 70
     0
  9
$USERI2
 70
     0
  9
$USERI3
 70
     0
  9
$USERI4
 70
     0
  9
$USERI5
 70
     0
  9
$USERR1
 40
0.0
  9
$USERR2
 40
0.0
  9
$USERR3
 40
0.0
  9
$USERR4
 40
0.0
  9
$USERR5
 40
0.0
  9
$WORLDVIEW
 70
     1
  9
$SHADEDGE
 70
     3
  9
$SHADEDIF
 70
    70
  9
$TILEMODE
 70
     1
  9
$MAXACTVP
 70
    16
  9
$PINSBASE
 10
0.0
 20
0.0
 30
0.0
  9
$PLIMCHECK
 70
     0
  9
$PEXTMIN
 10
1.000000000000000E+20
 20
1.000000000000000E+20
 30
1.000000000000000E+20
  9
$PEXTMAX
 10
-1.000000000000000E+20
 20
-1.000000000000000E+20
 30
-1.000000000000000E+20
  9
$PLIMMIN
 10
0.0
 20
0.0
  9
$PLIMMAX
 10
12.0
 20
9.0
  9
$UNITMODE
 70
     0
  9
$VISRETAIN
 70
     0
  9
$PLINEGEN
 70
     1
  9
$PSLTSCALE
 70
     0
  9
$TREEDEPTH
 70
  3020
  9
$CMLSTYLE
  2
STANDARD
  9
$CMLJUST
 70
     0
  9
$CMLSCALE
 40
1.0
  9
$PROXYGRAPHICS
 70
     0
  9
$MEASUREMENT
 70
     0
  9
$CELWEIGHT
370
    -1
  9
$ENDCAPS
280
     0
  9
$JOINSTYLE
280
     0
  9
$LWDISPLAY
290
     0
  9
$INSUNITS
 70
     0
  9
$HYPERLINKBASE
  1

  9
$STYLESHEET
  1

  9
$XEDIT
290
     1
  9
$CEPSNTYPE
380
     0
  9
$PSTYLEMODE
290
     1
  9
$FINGERPRINTGUID
  2
{68AEC40D-934A-477F-A9B4-9AFAA5E45DB3}
  9
$VERSIONGUID
  2
{C712B5B6-C18F-4DF0-BB6C-2FFE380919F6}
  9
$EXTNAMES
290
     1
  9
$PSVPSCALE
 40
0.0
  9
$OLESTARTUP
290
     0
  0
ENDSEC
  0
SECTION
  2
CLASSES
  0
CLASS
  1
IMAGE
  2
AcDbRasterImage
  3
ISM
 90
    34943
280
     0
281
     1
  0
CLASS
  1
DICTIONARYVAR
  2
AcDbDictionaryVar
  3
ObjectDBX Classes
 90
        0
280
     0
281
     0
  0
CLASS
  1
RASTERVARIABLES
  2
AcDbRasterVariables
  3
ISM
 90
    32768
280
     0
281
     0
  0
CLASS
  1
IMAGEDEF
  2
AcDbRasterImageDef
  3
ISM
 90
    32768
280
     0
281
     0
  0
CLASS
  1
IMAGEDEF_REACTOR
  2
AcDbRasterImageDefReactor
  3
ISM
 90
    32769
280
     0
281
     0
  0
CLASS
  1
IDBUFFER
  2
AcDbIdBuffer
  3
ObjectDBX Classes
 90
    32768
280
     0
281
     0
  0
CLASS
  1
SPATIAL_FILTER
  2
AcDbSpatialFilter
  3
ObjectDBX Classes
 90
    32768
280
     0
281
     0
  0
CLASS
  1
SORTENTSTABLE
  2
AcDbSortentsTable
  3
ObjectDBX Classes
 90
        0
280
     0
281
     0
  0
CLASS
  1
LAYER_INDEX
  2
AcDbLayerIndex
  3
ObjectDBX Classes
 90
    32768
280
     0
281
     0
  0
CLASS
  1
SPATIAL_INDEX
  2
AcDbSpatialIndex
  3
ObjectDBX Classes
 90
    32768
280
     0
281
     0
  0
CLASS
  1
OBJECT_PTR
  2
CAseDLPNTableRecord
  3
"ASE-LPNTableRecord"
 90
    32769
280
     0
281
     0
  0
CLASS
  1
LAYOUT
  2
AcDbLayout
  3
ObjectDBX Classes
 90
        0
280
     0
281
     0
  0
CLASS
  1
PLOTSETTINGS
  2
AcDbPlotSettings
  3
ObjectDBX Classes
 90
    32768
280
     0
281
     0
  0
CLASS
  1
ACDBDICTIONARYWDFLT
  2
AcDbDictionaryWithDefault
  3
ObjectDBX Classes
 90
        0
280
     0
281
     0
  0
CLASS
  1
ACDBPLACEHOLDER
  2
AcDbPlaceHolder
  3
ObjectDBX Classes
 90
        0
280
     0
281
     0
  0
CLASS
  1
VBA_PROJECT
  2
AcDbVbaProject
  3
acad
 90
    32768
280
     0
281
     0
  0
CLASS
  1
WIPEOUT
  2
AcDbWipeout
  3
"WipeOut|Product Desc: Object Enabler for WipeOut entity                        |Company: Autodesk, Inc.                        |WEB Address: www.autodesk.com"
 90
    34943
280
     0
281
     1
  0
CLASS
  1
WIPEOUTVARIABLES
  2
AcDbWipeoutVariables
  3
"WipeOut|Product Desc:     WipeOut Dbx Application|Company:          Autodesk, Inc.|WEB Address:      www.autodesk.com"
 90
    32768
280
     0
281
     0
  0
CLASS
  1
RTEXT
  2
RText
  3
RText|AutoCAD Express Tool|expresstools@autodesk.com
 90
    32768
280
     0
281
     1
  0
CLASS
  1
ARCALIGNEDTEXT
  2
AcDbArcAlignedText
  3
ATEXT|AutoCAD Express Tool|expresstools@autodesk.com
 90
    32768
280
     0
281
     1
  0
CLASS
  1
MATERIAL
  2
AcDbMaterial
  3
ObjectDBX Classes
 90
     1153
280
     0
281
     0
  0
CLASS
  1
VISUALSTYLE
  2
AcDbVisualStyle
  3
ObjectDBX Classes
 90
     4095
280
     0
281
     0
  0
CLASS
  1
TABLESTYLE
  2
AcDbTableStyle
  3
ObjectDBX Classes
 90
     4095
280
     0
281
     0
  0
CLASS
  1
SCALE
  2
AcDbScale
  3
ObjectDBX Classes
 90
     1153
280
     0
281
     0
  0
CLASS
  1
MLEADERSTYLE
  2
AcDbMLeaderStyle
  3
ACDB_MLEADERSTYLE_CLASS
 90
     4095
280
     0
281
     0
  0
CLASS
  1
CELLSTYLEMAP
  2
AcDbCellStyleMap
  3
ObjectDBX Classes
 90
     1152
280
     0
281
     0
  0
CLASS
  1
MULTILEADER
  2
AcDbMLeader
  3
ACDB_MLEADER_CLASS
 90
     1025
280
     0
281
     1
  0
ENDSEC
  0
SECTION
  2
TABLES
  0
TABLE
  2
VPORT
  5
7
102
{ACAD_XDICTIONARY
360
435
102
}
330
0
100
AcDbSymbolTable
 70
     1
  0
VPORT
  5
15
330
7
100
AcDbSymbolTableRecord
100
AcDbViewportTableRecord
  2
*ACTIVE
 70
     0
 10
0.0
 20
0.0
 11
1.0
 21
1.0
 12
583.6213491280188
 22
418.6527361690353
 13
0.0
 23
0.0
 14
10.0
 24
10.0
 15
10.0
 25
10.0
 16
0.0
 26
0.0
 36
1.0
 17
0.0
 27
0.0
 37
0.0
 40
284.2669999384682
 41
2.163875598086124
 42
50.0
 43
0.0
 44
0.0
 50
0.0
 51
0.0
 71
     0
 72
   100
 73
     1
 74
     1
 75
     0
 76
     0
 77
     0
 78
     0
281
     0
 65
     1
110
0.0
120
0.0
130
0.0
111
1.0
121
0.0
131
0.0
112
0.0
122
1.0
132
0.0
 79
     0
146
0.0
  0
ENDTAB
  0
TABLE
  2
LTYPE
  5
4
330
0
100
AcDbSymbolTable
 70
    22
  0
LTYPE
  5
11
330
4
100
AcDbSymbolTableRecord
100
AcDbLinetypeTableRecord
  2
BYBLOCK
 70
     0
  3

 72
    65
 73
     0
 40
0.0
  0
LTYPE
  5
12
330
4
100
AcDbSymbolTableRecord
100
AcDbLinetypeTableRecord
  2
BYLAYER
 70
     0
  3

 72
    65
 73
     0
 40
0.0
  0
LTYPE
  5
13
330
4
100
AcDbSymbolTableRecord
100
AcDbLinetypeTableRecord
  2
CONTINUOUS
 70
     0
  3
Solid line
 72
    65
 73
     0
 40
0.0
  0
LTYPE
  5
1D
330
4
100
AcDbSymbolTableRecord
100
AcDbLinetypeTableRecord
  2
DOT
 70
     0
  3
Dot . . . . . . . . . . . . . . . . . . . . . .
 72
    65
 73
     2
 40
6.349999999999999
 49
0.35
 74
     0
 49
-6.0
 74
     0
  0
LTYPE
  5
1E
330
4
100
AcDbSymbolTableRecord
100
AcDbLinetypeTableRecord
  2
DASHED
 70
     0
  3
Dashed __ __ __ __ __ __ __ __ __ __ __ __ __ _
 72
    65
 73
     2
 40
12.7
 49
6.349999999999999
 74
     0
 49
-6.349999999999999
 74
     0
  0
LTYPE
  5
1F
330
4
100
AcDbSymbolTableRecord
100
AcDbLinetypeTableRecord
  2
DASHDOT
 70
     0
  3
Dash dot __ . __ . __ . __ . __ . __ . __ . __
 72
    65
 73
     4
 40
25.4
 49
12.7
 74
     0
 49
-6.0
 74
     0
 49
0.7
 74
     0
 49
-6.0
 74
     0
  0
LTYPE
  5
20
330
4
100
AcDbSymbolTableRecord
100
AcDbLinetypeTableRecord
  2
DIVIDE
 70
     0
  3
Divide ____ . . ____ . . ____ . . ____ . . ____
 72
    65
 73
     6
 40
31.75
 49
12.7
 74
     0
 49
-6.0
 74
     0
 49
0.875
 74
     0
 49
-6.0
 74
     0
 49
0.875
 74
     0
 49
-6.0
 74
     0
  0
LTYPE
  5
21
330
4
100
AcDbSymbolTableRecord
100
AcDbLinetypeTableRecord
  2
HIDDEN
 70
     0
  3
Hidden __ __ __ __ __ __ __ __ __ __ __ __ __ _
 72
    65
 73
     2
 40
9.525
 49
6.349999999999999
 74
     0
 49
-3.174999999999999
 74
     0
  0
LTYPE
  5
22
330
4
100
AcDbSymbolTableRecord
100
AcDbLinetypeTableRecord
  2
CENTER
 70
     0
  3
Center ____ _ ____ _ ____ _ ____ _ ____ _ ____
 72
    65
 73
     4
 40
50.8
 49
31.75
 74
     0
 49
-6.349999999999999
 74
     0
 49
6.349999999999999
 74
     0
 49
-6.349999999999999
 74
     0
  0
LTYPE
  5
23
330
4
100
AcDbSymbolTableRecord
100
AcDbLinetypeTableRecord
  2
PHANTOM
 70
     0
  3
Phantom ______  __  __  ______  __  __  ______
 72
    65
 73
     6
 40
63.5
 49
31.75
 74
     0
 49
-6.349999999999999
 74
     0
 49
6.349999999999999
 74
     0
 49
-6.349999999999999
 74
     0
 49
6.349999999999999
 74
     0
 49
-6.349999999999999
 74
     0
  0
LTYPE
  5
24
330
4
100
AcDbSymbolTableRecord
100
AcDbLinetypeTableRecord
  2
ACAD_ISO02W100
 70
     0
  3
ISO dash __ __ __ __ __ __ __ __ __ __ __ __ __
 72
    65
 73
     2
 40
15.0
 49
12.0
 74
     0
 49
-3.0
 74
     0
  0
LTYPE
  5
25
330
4
100
AcDbSymbolTableRecord
100
AcDbLinetypeTableRecord
  2
ACAD_ISO03W100
 70
     0
  3
ISO dash space __ __ __ __ __ __ __ __ __ __ __ __ __ __
 72
    65
 73
     2
 40
30.0
 49
12.0
 74
     0
 49
-18.0
 74
     0
  0
LTYPE
  5
26
330
4
100
AcDbSymbolTableRecord
100
AcDbLinetypeTableRecord
  2
ACAD_ISO04W100
 70
     0
  3
ISO long-dash dot ____ . ____ . ____ . ____ . _
 72
    65
 73
     4
 40
30.0
 49
24.0
 74
     0
 49
-3.0
 74
     0
 49
0.0
 74
     0
 49
-3.0
 74
     0
  0
LTYPE
  5
27
330
4
100
AcDbSymbolTableRecord
100
AcDbLinetypeTableRecord
  2
ACAD_ISO05W100
 70
     0
  3
ISO long-dash double-dot ____ .. ____ .. ____ .
 72
    65
 73
     6
 40
33.0
 49
24.0
 74
     0
 49
-3.0
 74
     0
 49
0.0
 74
     0
 49
-3.0
 74
     0
 49
0.0
 74
     0
 49
-3.0
 74
     0
  0
LTYPE
  5
28
330
4
100
AcDbSymbolTableRecord
100
AcDbLinetypeTableRecord
  2
ACAD_ISO06W100
 70
     0
  3
ISO long-dash triple-dot ____ ... ____ ... ____
 72
    65
 73
     8
 40
36.0
 49
24.0
 74
     0
 49
-3.0
 74
     0
 49
0.0
 74
     0
 49
-3.0
 74
     0
 49
0.0
 74
     0
 49
-3.0
 74
     0
 49
0.0
 74
     0
 49
-3.0
 74
     0
  0
LTYPE
  5
29
330
4
100
AcDbSymbolTableRecord
100
AcDbLinetypeTableRecord
  2
ACAD_ISO07W100
 70
     0
  3
ISO dot . . . . . . . . . . . . . . . . . . . .
 72
    65
 73
     2
 40
3.0
 49
0.0
 74
     0
 49
-3.0
 74
     0
  0
LTYPE
  5
2A
330
4
100
AcDbSymbolTableRecord
100
AcDbLinetypeTableRecord
  2
ACAD_ISO08W100
 70
     0
  3
ISO long-dash short-dash ____ __ ____ __ ____ _
 72
    65
 73
     4
 40
36.0
 49
24.0
 74
     0
 49
-3.0
 74
     0
 49
6.0
 74
     0
 49
-3.0
 74
     0
  0
LTYPE
  5
2B
330
4
100
AcDbSymbolTableRecord
100
AcDbLinetypeTableRecord
  2
ACAD_ISO09W100
 70
     0
  3
ISO long-dash double-short-dash ____ __ __ ____
 72
    65
 73
     6
 40
45.0
 49
24.0
 74
     0
 49
-3.0
 74
     0
 49
6.0
 74
     0
 49
-3.0
 74
     0
 49
6.0
 74
     0
 49
-3.0
 74
     0
  0
LTYPE
  5
2C
330
4
100
AcDbSymbolTableRecord
100
AcDbLinetypeTableRecord
  2
ACAD_ISO10W100
 70
     0
  3
ISO dash dot __ . __ . __ . __ . __ . __ . __ .
 72
    65
 73
     4
 40
18.0
 49
12.0
 74
     0
 49
-3.0
 74
     0
 49
0.0
 74
     0
 49
-3.0
 74
     0
  0
LTYPE
  5
2D
330
4
100
AcDbSymbolTableRecord
100
AcDbLinetypeTableRecord
  2
ACAD_ISO11W100
 70
     0
  3
ISO double-dash dot __ __ . __ __ . __ __ . __ 
 72
    65
 73
     6
 40
33.0
 49
12.0
 74
     0
 49
-3.0
 74
     0
 49
12.0
 74
     0
 49
-3.0
 74
     0
 49
0.0
 74
     0
 49
-3.0
 74
     0
  0
LTYPE
  5
2E
330
4
100
AcDbSymbolTableRecord
100
AcDbLinetypeTableRecord
  2
ACAD_ISO12W100
 70
     0
  3
ISO dash double-dot __ . . __ . . __ . . __ . .
 72
    65
 73
     6
 40
21.0
 49
12.0
 74
     0
 49
-3.0
 74
     0
 49
0.0
 74
     0
 49
-3.0
 74
     0
 49
0.0
 74
     0
 49
-3.0
 74
     0
  0
LTYPE
  5
2F
330
4
100
AcDbSymbolTableRecord
100
AcDbLinetypeTableRecord
  2
ACAD_ISO13W100
 70
     0
  3
ISO double-dash double-dot __ __ . . __ __ . . 
 72
    65
 73
     8
 40
36.0
 49
12.0
 74
     0
 49
-3.0
 74
     0
 49
12.0
 74
     0
 49
-3.0
 74
     0
 49
0.0
 74
     0
 49
-3.0
 74
     0
 49
0.0
 74
     0
 49
-3.0
 74
     0
  0
LTYPE
  5
30
330
4
100
AcDbSymbolTableRecord
100
AcDbLinetypeTableRecord
  2
ACAD_ISO14W100
 70
     0
  3
ISO dash triple-dot __ . . . __ . . . __ . . . 
 72
    65
 73
     8
 40
24.0
 49
12.0
 74
     0
 49
-3.0
 74
     0
 49
0.0
 74
     0
 49
-3.0
 74
     0
 49
0.0
 74
     0
 49
-3.0
 74
     0
 49
0.0
 74
     0
 49
-3.0
 74
     0
  0
LTYPE
  5
31
330
4
100
AcDbSymbolTableRecord
100
AcDbLinetypeTableRecord
  2
ACAD_ISO15W100
 70
     0
  3
ISO double-dash double-dot __ __ . . __ __ . . 
 72
    65
 73
    10
 40
39.0
 49
12.0
 74
     0
 49
-3.0
 74
     0
 49
12.0
 74
     0
 49
-3.0
 74
     0
 49
0.0
 74
     0
 49
-3.0
 74
     0
 49
0.0
 74
     0
 49
-3.0
 74
     0
 49
0.0
 74
     0
 49
-3.0
 74
     0
  0
ENDTAB
  0
TABLE
  2
LAYER
  5
2
102
{ACAD_XDICTIONARY
360
7EA
102
}
330
0
100
AcDbSymbolTable
 70
     8
  0
LAYER
  5
14
102
{ACAD_XDICTIONARY
360
413
102
}
330
2
100
AcDbSymbolTableRecord
100
AcDbLayerTableRecord
  2
0
 70
     0
 62
     7
  6
CONTINUOUS
370
    -3
390
3B9
  0
LAYER
  5
33
330
2
100
AcDbSymbolTableRecord
100
AcDbLayerTableRecord
  2
DEFPOINTS
 70
     0
 62
     7
  6
CONTINUOUS
290
     0
370
    -3
390
3B9
  0
LAYER
  5
34
102
{ACAD_XDICTIONARY
360
415
102
}
330
2
100
AcDbSymbolTableRecord
100
AcDbLayerTableRecord
  2
図枠
 70
     0
 62
     7
  6
CONTINUOUS
370
    -3
390
3B9
  0
LAYER
  5
35
102
{ACAD_XDICTIONARY
360
417
102
}
330
2
100
AcDbSymbolTableRecord
100
AcDbLayerTableRecord
  2
文字
 70
     0
 62
     7
  6
CONTINUOUS
370
    -3
390
3B9
  0
LAYER
  5
36
102
{ACAD_XDICTIONARY
360
419
102
}
330
2
100
AcDbSymbolTableRecord
100
AcDbLayerTableRecord
  2
寸法
 70
     0
 62
     7
  6
CONTINUOUS
370
     0
390
3B9
  0
LAYER
  5
38
102
{ACAD_XDICTIONARY
360
41D
102
}
330
2
100
AcDbSymbolTableRecord
100
AcDbLayerTableRecord
  2
一般
 70
     0
 62
     7
  6
CONTINUOUS
370
    -3
390
3B9
  0
LAYER
  5
830
330
2
100
AcDbSymbolTableRecord
100
AcDbLayerTableRecord
  2
LAYER00005
 70
     0
 62
     7
  6
CONTINUOUS
370
    -3
390
3B9
  0
LAYER
  5
D46
330
2
100
AcDbSymbolTableRecord
100
AcDbLayerTableRecord
  2
1
 70
     0
 62
     7
  6
CONTINUOUS
370
    -3
390
3B9
1001
AcAecLayerStandard
1000

1000

  0
ENDTAB
  0
TABLE
  2
STYLE
  5
3
330
0
100
AcDbSymbolTable
 70
     2
  0
STYLE
  5
17
330
3
100
AcDbSymbolTableRecord
100
AcDbTextStyleTableRecord
  2
STANDARD
 70
     0
 40
0.0
 41
1.0
 50
0.0
 71
     0
 42
0.0
  3
txt.shx
  4
bigfont.shx
  0
ENDTAB
  0
TABLE
  2
VIEW
  5
5
330
0
100
AcDbSymbolTable
 70
     1
  0
ENDTAB
  0
TABLE
  2
UCS
  5
6
330
0
100
AcDbSymbolTable
 70
     0
  0
ENDTAB
  0
TABLE
  2
APPID
  5
8
330
0
100
AcDbSymbolTable
 70
     7
  0
APPID
  5
16
330
8
100
AcDbSymbolTableRecord
100
AcDbRegAppTableRecord
  2
ACAD
 70
     0
  0
APPID
  5
461
330
8
100
AcDbSymbolTableRecord
100
AcDbRegAppTableRecord
  2
ACAD_MLEADERVER
 70
     0
  0
APPID
  5
7E8
330
8
100
AcDbSymbolTableRecord
100
AcDbRegAppTableRecord
  2
ACAD_DSTYLE_DIMJAG
 70
     0
  0
APPID
  5
7E9
330
8
100
AcDbSymbolTableRecord
100
AcDbRegAppTableRecord
  2
ACAD_DSTYLE_DIMTALN
 70
     0
  0
APPID
  5
D47
330
8
100
AcDbSymbolTableRecord
100
AcDbRegAppTableRecord
  2
AcAecLayerStandard
 70
     0
  0
APPID
  5
F94
330
8
100
AcDbSymbolTableRecord
100
AcDbRegAppTableRecord
  2
ACAD_EXEMPT_FROM_CAD_STANDARDS
 70
     0
  0
APPID
  5
108E
330
8
100
AcDbSymbolTableRecord
100
AcDbRegAppTableRecord
  2
ACAD_PSEXT
 70
     0
  0
ENDTAB
  0
TABLE
  2
DIMSTYLE
  5
9
330
0
100
AcDbSymbolTable
 70
     2
100
AcDbDimStyleTable
 71
     1
340
7E7
  0
DIMSTYLE
105
7E7
102
{ACAD_REACTORS
330
D57
330
D71
330
DF4
330
E01
330
F96
330
FA3
330
FB0
102
}
330
9
100
AcDbSymbolTableRecord
100
AcDbDimStyleTableRecord
  2
外観図
 70
     0
 41
2.5
 42
0.625
 43
3.75
 44
1.25
 73
     0
 74
     0
 77
     1
 78
     8
140
4.0
141
2.5
143
0.03937007874016
147
0.625
171
     3
172
     1
178
     4
271
     2
272
     2
274
     3
278
    44
283
     0
284
     8
340
17
1001
ACAD_DSTYLE_DIMJAG
1070
   388
1040
1.5
1001
ACAD_DSTYLE_DIMTALN
1070
   392
1070
     0
  0
ENDTAB
  0
TABLE
  2
BLOCK_RECORD
  5
1
330
0
100
AcDbSymbolTable
 70
     9
  0
BLOCK_RECORD
  5
A
102
{ACAD_XDICTIONARY
360
DAA
102
}
330
1
100
AcDbSymbolTableRecord
100
AcDbBlockTableRecord
  2
*MODEL_SPACE
340
410
  0
BLOCK_RECORD
  5
B
330
1
100
AcDbSymbolTableRecord
100
AcDbBlockTableRecord
  2
*PAPER_SPACE
340
411
  0
BLOCK_RECORD
  5
D48
102
{ACAD_XDICTIONARY
360
D53
102
}
330
1
100
AcDbSymbolTableRecord
100
AcDbBlockTableRecord
  2
A$C239F67A2
340
0
1001
ACAD
1000
DesignCenter Data
1002
{
1070
     1
1070
     4
1002
}
  0
BLOCK_RECORD
  5
D58
330
1
100
AcDbSymbolTableRecord
100
AcDbBlockTableRecord
  2
*D1
340
0
  0
BLOCK_RECORD
  5
D72
330
1
100
AcDbSymbolTableRecord
100
AcDbBlockTableRecord
  2
*D2
340
0
  0
BLOCK_RECORD
  5
DF5
330
1
100
AcDbSymbolTableRecord
100
AcDbBlockTableRecord
  2
*D3
340
0
  0
BLOCK_RECORD
  5
E02
330
1
100
AcDbSymbolTableRecord
100
AcDbBlockTableRecord
  2
*D4
340
0
  0
BLOCK_RECORD
  5
F97
330
1
100
AcDbSymbolTableRecord
100
AcDbBlockTableRecord
  2
*D5
340
0
  0
BLOCK_RECORD
  5
FA4
330
1
100
AcDbSymbolTableRecord
100
AcDbBlockTableRecord
  2
*D6
340
0
  0
BLOCK_RECORD
  5
FB1
330
1
100
AcDbSymbolTableRecord
100
AcDbBlockTableRecord
  2
*D7
340
0
  0
BLOCK_RECORD
  5
102C
330
1
100
AcDbSymbolTableRecord
100
AcDbBlockTableRecord
  2
_None
340
0
  0
ENDTAB
  0
ENDSEC
  0
SECTION
  2
BLOCKS
  0
BLOCK
  5
D
330
A
100
AcDbEntity
  8
0
100
AcDbBlockBegin
  2
*MODEL_SPACE
 70
     0
 10
0.0
 20
0.0
 30
0.0
  3
*MODEL_SPACE
  1

  0
ENDBLK
  5
E
330
A
100
AcDbEntity
  8
0
100
AcDbBlockEnd
  0
BLOCK
  5
F
330
B
100
AcDbEntity
 67
     1
  8
0
100
AcDbBlockBegin
  2
*PAPER_SPACE
 70
     0
 10
0.0
 20
0.0
 30
0.0
  3
*PAPER_SPACE
  1

  0
ENDBLK
  5
10
330
B
100
AcDbEntity
 67
     1
  8
0
100
AcDbBlockEnd
  0
BLOCK
  5
D55
330
D48
100
AcDbEntity
  8
0
100
AcDbBlockBegin
  2
A$C239F67A2
 70
     0
 10
0.0
 20
0.0
 30
0.0
  3
A$C239F67A2
  1

  0
LINE
  5
D49
330
D48
100
AcDbEntity
  8
1
100
AcDbLine
 10
0.5643209560221863
 20
0.0000005373395311
 30
0.0
 11
2.479794678074995
 21
0.0912135717225624
 31
0.0
  0
LINE
  5
D4A
330
D48
100
AcDbEntity
  8
1
100
AcDbLine
 10
3.802392496292611
 20
1.31598033611192
 30
0.0
 11
3.817605997298898
 21
1.43768834416852
 31
0.0
  0
LINE
  5
D4B
330
D48
100
AcDbEntity
  8
1
100
AcDbLine
 10
5.014199304913489
 20
2.650728898192767
 30
0.0
 11
6.601041276135703
 21
2.871123616417946
 31
0.0
  0
LINE
  5
D4C
330
D48
100
AcDbEntity
  8
1
100
AcDbLine
 10
-0.0000019441036159
 20
0.6588000399162582
 30
0.0
 11
1.915471777949306
 21
0.750013074299261
 31
0.0
  0
LINE
  5
D4D
330
D48
100
AcDbEntity
  8
1
100
AcDbLine
 10
3.238069596166695
 20
1.974779838688675
 30
0.0
 11
3.253283097173124
 21
2.096487846745361
 31
0.0
  0
LINE
  5
D4E
330
D48
100
AcDbEntity
  8
1
100
AcDbLine
 10
4.449876404787801
 20
3.30952840076938
 30
0.0
 11
6.036718376009986
 21
3.529923118994787
 31
0.0
  0
ARC
  5
D4F
330
D48
100
AcDbEntity
  8
1
100
AcDbCircle
 10
2.413203468893385
 20
1.489628964536763
 30
0.0
 40
1.399999999999999
100
AcDbArc
 50
272.7263109939029
 51
352.8749836510954
  0
ARC
  5
D50
330
D48
100
AcDbEntity
  8
1
100
AcDbCircle
 10
5.206795024698095
 20
1.264039715743763
 30
0.0
 40
1.399999999999999
100
AcDbArc
 50
97.90716270295975
 51
172.8749836511018
  0
ARC
  5
D51
330
D48
100
AcDbEntity
  8
1
100
AcDbCircle
 10
1.848880568767697
 20
2.148428467113546
 30
0.0
 40
1.399999999999999
100
AcDbArc
 50
272.7263109939029
 51
352.8749836510954
  0
ARC
  5
D52
330
D48
100
AcDbEntity
  8
1
100
AcDbCircle
 10
4.642472124572378
 20
1.922839218320518
 30
0.0
 40
1.399999999999999
100
AcDbArc
 50
97.90716270295975
 51
172.8749836511018
  0
ENDBLK
  5
D56
330
D48
100
AcDbEntity
  8
0
100
AcDbBlockEnd
  0
BLOCK
  5
D59
330
D58
100
AcDbEntity
  8
0
100
AcDbBlockBegin
  2
*D1
 70
     1
 10
0.0
 20
0.0
 30
0.0
  3
*D1
  1

  0
LINE
  5
1039
330
D58
100
AcDbEntity
  8
寸法
  6
Continuous
 62
     0
370
    -2
100
AcDbLine
 10
556.8824095300849
 20
374.0739347605373
 30
0.0
 11
531.0436473675099
 21
374.0739347605373
 31
0.0
  0
LINE
  5
103A
330
D58
100
AcDbEntity
  8
寸法
  6
Continuous
 62
     0
370
    -2
100
AcDbLine
 10
556.8824095300852
 20
334.0739347605378
 30
0.0
 11
531.0436473675099
 21
334.0739347605378
 31
0.0
  0
LINE
  5
103B
330
D58
100
AcDbEntity
  8
寸法
  6
Continuous
 62
     0
370
    -2
100
AcDbLine
 10
532.2936473675099
 20
371.5739347605373
 30
0.0
 11
532.2936473675099
 21
336.5739347605378
 31
0.0
  0
SOLID
  5
103C
330
D58
100
AcDbEntity
  8
寸法
  6
Continuous
 62
     0
100
AcDbTrace
 10
531.8769807008433
 20
371.5739347605373
 30
0.0
 11
532.7103140341765
 21
371.5739347605373
 31
0.0
 12
532.2936473675099
 22
374.0739347605373
 32
0.0
 13
532.2936473675099
 23
374.0739347605373
 33
0.0
  0
SOLID
  5
103D
330
D58
100
AcDbEntity
  8
寸法
  6
Continuous
 62
     0
100
AcDbTrace
 10
531.8769807008433
 20
336.5739347605378
 30
0.0
 11
532.7103140341765
 21
336.5739347605378
 31
0.0
 12
532.2936473675099
 22
334.0739347605378
 32
0.0
 13
532.2936473675099
 23
334.0739347605378
 33
0.0
  0
MTEXT
  5
103E
330
D58
100
AcDbEntity
  8
寸法
  6
Continuous
 62
     4
100
AcDbMText
 10
529.6686473675098
 20
354.0739347605376
 30
0.0
 40
4.0
 41
0.0
 71
     5
 72
     1
  1
40
 11
0.0000000000000001
 21
1.0
 31
0.0
 73
     1
 44
1.0
1001
ACAD
1000
MTEXTBEGIN
1070
    73
1070
     1
1070
    44
1040
1.0
1070
    74
1070
     0
1000
MTEXTEND
  0
POINT
  5
103F
330
D58
100
AcDbEntity
  8
DEFPOINTS
  6
Continuous
 62
     0
100
AcDbPoint
 10
557.5074095300849
 20
374.0739347605373
 30
0.0
  0
POINT
  5
1040
330
D58
100
AcDbEntity
  8
DEFPOINTS
  6
Continuous
 62
     0
100
AcDbPoint
 10
557.5074095300853
 20
334.0739347605378
 30
0.0
  0
POINT
  5
1041
330
D58
100
AcDbEntity
  8
DEFPOINTS
  6
Continuous
 62
     0
100
AcDbPoint
 10
532.2936473675099
 20
334.0739347605378
 30
0.0
  0
ENDBLK
  5
D5A
330
D58
100
AcDbEntity
  8
0
100
AcDbBlockEnd
  0
BLOCK
  5
D73
330
D72
100
AcDbEntity
  8
0
100
AcDbBlockBegin
  2
*D2
 70
     1
 10
0.0
 20
0.0
 30
0.0
  3
*D2
  1

  0
LINE
  5
1042
330
D72
100
AcDbEntity
  8
寸法
  6
Continuous
 62
     0
370
    -2
100
AcDbLine
 10
556.8824095300849
 20
374.0739347605373
 30
0.0
 11
531.0436473675099
 21
374.0739347605373
 31
0.0
  0
LINE
  5
1043
330
D72
100
AcDbEntity
  8
寸法
  6
Continuous
 62
     0
370
    -2
100
AcDbLine
 10
565.4824095300847
 20
528.5739347605373
 30
0.0
 11
531.0436473675099
 21
528.5739347605373
 31
0.0
  0
LINE
  5
1044
330
D72
100
AcDbEntity
  8
寸法
  6
Continuous
 62
     0
370
    -2
100
AcDbLine
 10
532.2936473675099
 20
376.5739347605373
 30
0.0
 11
532.2936473675099
 21
526.0739347605372
 31
0.0
  0
SOLID
  5
1045
330
D72
100
AcDbEntity
  8
寸法
  6
Continuous
 62
     0
100
AcDbTrace
 10
531.8769807008433
 20
376.5739347605373
 30
0.0
 11
532.7103140341765
 21
376.5739347605373
 31
0.0
 12
532.2936473675099
 22
374.0739347605373
 32
0.0
 13
532.2936473675099
 23
374.0739347605373
 33
0.0
  0
SOLID
  5
1046
330
D72
100
AcDbEntity
  8
寸法
  6
Continuous
 62
     0
100
AcDbTrace
 10
531.8769807008433
 20
526.0739347605372
 30
0.0
 11
532.7103140341765
 21
526.0739347605372
 31
0.0
 12
532.2936473675099
 22
528.5739347605373
 32
0.0
 13
532.2936473675099
 23
528.5739347605373
 33
0.0
  0
MTEXT
  5
1047
330
D72
100
AcDbEntity
  8
寸法
  6
Continuous
 62
     4
100
AcDbMText
 10
529.6686473675098
 20
451.3239347605374
 30
0.0
 40
4.0
 41
0.0
 71
     5
 72
     1
  1
280mm
 11
0.0000000000000001
 21
1.0
 31
0.0
 73
     1
 44
1.0
1001
ACAD
1000
MTEXTBEGIN
1070
    73
1070
     1
1070
    44
1040
1.0
1070
    74
1070
     0
1000
MTEXTEND
  0
POINT
  5
1048
330
D72
100
AcDbEntity
  8
DEFPOINTS
  6
Continuous
 62
     0
100
AcDbPoint
 10
557.5074095300849
 20
374.0739347605373
 30
0.0
  0
POINT
  5
1049
330
D72
100
AcDbEntity
  8
DEFPOINTS
  6
Continuous
 62
     0
100
AcDbPoint
 10
566.1074095300847
 20
528.5739347605373
 30
0.0
  0
POINT
  5
104A
330
D72
100
AcDbEntity
  8
DEFPOINTS
  6
Continuous
 62
     0
100
AcDbPoint
 10
532.2936473675099
 20
528.5739347605373
 30
0.0
  0
ENDBLK
  5
D74
330
D72
100
AcDbEntity
  8
0
100
AcDbBlockEnd
  0
BLOCK
  5
DF6
330
DF5
100
AcDbEntity
  8
0
100
AcDbBlockBegin
  2
*D3
 70
     1
 10
0.0
 20
0.0
 30
0.0
  3
*D3
  1

  0
LINE
  5
104B
330
DF5
100
AcDbEntity
  8
寸法
  6
Continuous
 62
     0
370
    -2
100
AcDbLine
 10
557.0074095300851
 20
333.9489347605378
 30
0.0
 11
557.0074095300851
 21
320.6473129645792
 31
0.0
  0
LINE
  5
104C
330
DF5
100
AcDbEntity
  8
寸法
  6
Continuous
 62
     0
370
    -2
100
AcDbLine
 10
587.0074095300847
 20
333.9489347605383
 30
0.0
 11
587.0074095300847
 21
320.6473129645792
 31
0.0
  0
LINE
  5
104D
330
DF5
100
AcDbEntity
  8
寸法
  6
Continuous
 62
     0
370
    -2
100
AcDbLine
 10
559.5074095300851
 20
321.8973129645791
 30
0.0
 11
584.5074095300847
 21
321.8973129645791
 31
0.0
  0
SOLID
  5
104E
330
DF5
100
AcDbEntity
  8
寸法
  6
Continuous
 62
     0
100
AcDbTrace
 10
559.5074095300851
 20
322.3139796312458
 30
0.0
 11
559.5074095300851
 21
321.4806462979125
 31
0.0
 12
557.0074095300851
 22
321.8973129645791
 32
0.0
 13
557.0074095300851
 23
321.8973129645791
 33
0.0
  0
SOLID
  5
104F
330
DF5
100
AcDbEntity
  8
寸法
  6
Continuous
 62
     0
100
AcDbTrace
 10
584.5074095300847
 20
322.3139796312458
 30
0.0
 11
584.5074095300847
 21
321.4806462979125
 31
0.0
 12
587.0074095300847
 22
321.8973129645791
 32
0.0
 13
587.0074095300847
 23
321.8973129645791
 33
0.0
  0
MTEXT
  5
1050
330
DF5
100
AcDbEntity
  8
寸法
  6
Continuous
 62
     4
100
AcDbMText
 10
572.0074095300849
 20
324.5223129645792
 30
0.0
 40
4.0
 41
0.0
 71
     5
 72
     1
  1
30
 73
     1
 44
1.0
1001
ACAD
1000
MTEXTBEGIN
1070
    73
1070
     1
1070
    44
1040
1.0
1070
    74
1070
     0
1000
MTEXTEND
  0
POINT
  5
1051
330
DF5
100
AcDbEntity
  8
DEFPOINTS
  6
Continuous
 62
     0
100
AcDbPoint
 10
557.0074095300851
 20
334.5739347605378
 30
0.0
  0
POINT
  5
1052
330
DF5
100
AcDbEntity
  8
DEFPOINTS
  6
Continuous
 62
     0
100
AcDbPoint
 10
587.0074095300847
 20
334.5739347605384
 30
0.0
  0
POINT
  5
1053
330
DF5
100
AcDbEntity
  8
DEFPOINTS
  6
Continuous
 62
     0
100
AcDbPoint
 10
587.0074095300847
 20
321.8973129645791
 30
0.0
  0
ENDBLK
  5
DF7
330
DF5
100
AcDbEntity
  8
0
100
AcDbBlockEnd
  0
BLOCK
  5
E03
330
E02
100
AcDbEntity
  8
0
100
AcDbBlockBegin
  2
*D4
 70
     1
 10
0.0
 20
0.0
 30
0.0
  3
*D4
  1

  0
LINE
  5
1054
330
E02
100
AcDbEntity
  8
寸法
  6
Continuous
 62
     0
370
    -2
100
AcDbLine
 10
613.7326665719633
 20
333.9489347605335
 30
0.0
 11
613.7326665719633
 21
320.6473129645792
 31
0.0
  0
LINE
  5
1055
330
E02
100
AcDbEntity
  8
寸法
  6
Continuous
 62
     0
370
    -2
100
AcDbLine
 10
633.7326665719636
 20
333.9489347605328
 30
0.0
 11
633.7326665719636
 21
320.6473129645792
 31
0.0
  0
LINE
  5
1056
330
E02
100
AcDbEntity
  8
寸法
  6
Continuous
 62
     0
370
    -2
100
AcDbLine
 10
616.2326665719632
 20
321.8973129645791
 30
0.0
 11
631.2326665719637
 21
321.8973129645791
 31
0.0
  0
SOLID
  5
1057
330
E02
100
AcDbEntity
  8
寸法
  6
Continuous
 62
     0
100
AcDbTrace
 10
616.2326665719632
 20
322.3139796312458
 30
0.0
 11
616.2326665719632
 21
321.4806462979125
 31
0.0
 12
613.7326665719633
 22
321.8973129645791
 32
0.0
 13
613.7326665719633
 23
321.8973129645791
 33
0.0
  0
SOLID
  5
1058
330
E02
100
AcDbEntity
  8
寸法
  6
Continuous
 62
     0
100
AcDbTrace
 10
631.2326665719637
 20
322.3139796312458
 30
0.0
 11
631.2326665719637
 21
321.4806462979125
 31
0.0
 12
633.7326665719636
 22
321.8973129645791
 32
0.0
 13
633.7326665719636
 23
321.8973129645791
 33
0.0
  0
MTEXT
  5
1059
330
E02
100
AcDbEntity
  8
寸法
  6
Continuous
 62
     4
100
AcDbMText
 10
623.7326665719635
 20
324.5223129645792
 30
0.0
 40
4.0
 41
0.0
 71
     5
 72
     1
  1
20
 73
     1
 44
1.0
1001
ACAD
1000
MTEXTBEGIN
1070
    73
1070
     1
1070
    44
1040
1.0
1070
    74
1070
     0
1000
MTEXTEND
  0
POINT
  5
105A
330
E02
100
AcDbEntity
  8
DEFPOINTS
  6
Continuous
 62
     0
100
AcDbPoint
 10
613.7326665719633
 20
334.5739347605335
 30
0.0
  0
POINT
  5
105B
330
E02
100
AcDbEntity
  8
DEFPOINTS
  6
Continuous
 62
     0
100
AcDbPoint
 10
633.7326665719636
 20
334.5739347605328
 30
0.0
  0
POINT
  5
105C
330
E02
100
AcDbEntity
  8
DEFPOINTS
  6
Continuous
 62
     0
100
AcDbPoint
 10
633.7326665719636
 20
321.8973129645791
 30
0.0
  0
ENDBLK
  5
E04
330
E02
100
AcDbEntity
  8
0
100
AcDbBlockEnd
  0
BLOCK
  5
F98
330
F97
100
AcDbEntity
  8
0
100
AcDbBlockBegin
  2
*D5
 70
     1
 10
0.0
 20
0.0
 30
0.0
  3
*D5
  1

  0
LINE
  5
105D
330
F97
100
AcDbEntity
  8
寸法
  6
Continuous
 62
     0
370
    -2
100
AcDbLine
 10
406.278117449126
 20
473.7837325360971
 30
0.0
 11
387.7865883047808
 21
473.7837325360971
 31
0.0
  0
LINE
  5
105E
330
F97
100
AcDbEntity
  8
寸法
  6
Continuous
 62
     0
370
    -2
100
AcDbLine
 10
407.778117449126
 20
363.7837325360972
 30
0.0
 11
387.7865883047807
 21
363.7837325360972
 31
0.0
  0
LINE
  5
105F
330
F97
100
AcDbEntity
  8
寸法
  6
Continuous
 62
     0
370
    -2
100
AcDbLine
 10
389.0365883047808
 20
471.2837325360972
 30
0.0
 11
389.0365883047807
 21
366.2837325360972
 31
0.0
  0
SOLID
  5
1060
330
F97
100
AcDbEntity
  8
寸法
  6
Continuous
 62
     0
100
AcDbTrace
 10
388.6199216381141
 20
471.2837325360972
 30
0.0
 11
389.4532549714475
 21
471.2837325360972
 31
0.0
 12
389.0365883047808
 22
473.7837325360971
 32
0.0
 13
389.0365883047808
 23
473.7837325360971
 33
0.0
  0
SOLID
  5
1061
330
F97
100
AcDbEntity
  8
寸法
  6
Continuous
 62
     0
100
AcDbTrace
 10
388.619921638114
 20
366.2837325360972
 30
0.0
 11
389.4532549714474
 21
366.2837325360972
 31
0.0
 12
389.0365883047807
 22
363.7837325360972
 32
0.0
 13
389.0365883047807
 23
363.7837325360972
 33
0.0
  0
MTEXT
  5
1062
330
F97
100
AcDbEntity
  8
寸法
  6
Continuous
 62
     4
100
AcDbMText
 10
386.4115883047806
 20
418.7837325360972
 30
0.0
 40
4.0
 41
0.0
 71
     5
 72
     1
  1
110
 11
0.0000000000000001
 21
1.0
 31
0.0
 73
     1
 44
1.0
1001
ACAD
1000
MTEXTBEGIN
1070
    73
1070
     1
1070
    44
1040
1.0
1070
    74
1070
     0
1000
MTEXTEND
  0
POINT
  5
1063
330
F97
100
AcDbEntity
  8
DEFPOINTS
  6
Continuous
 62
     0
100
AcDbPoint
 10
406.903117449126
 20
473.7837325360971
 30
0.0
  0
POINT
  5
1064
330
F97
100
AcDbEntity
  8
DEFPOINTS
  6
Continuous
 62
     0
100
AcDbPoint
 10
408.403117449126
 20
363.7837325360972
 30
0.0
  0
POINT
  5
1065
330
F97
100
AcDbEntity
  8
DEFPOINTS
  6
Continuous
 62
     0
100
AcDbPoint
 10
389.0365883047807
 20
363.7837325360972
 30
0.0
  0
ENDBLK
  5
F99
330
F97
100
AcDbEntity
  8
0
100
AcDbBlockEnd
  0
BLOCK
  5
FA5
330
FA4
100
AcDbEntity
  8
0
100
AcDbBlockBegin
  2
*D6
 70
     1
 10
0.0
 20
0.0
 30
0.0
  3
*D6
  1

  0
LINE
  5
1066
330
FA4
100
AcDbEntity
  8
寸法
  6
Continuous
 62
     0
370
    -2
100
AcDbLine
 10
406.403117449126
 20
365.1587325360972
 30
0.0
 11
406.403117449126
 21
348.4520828718179
 31
0.0
  0
LINE
  5
1067
330
FA4
100
AcDbEntity
  8
寸法
  6
Continuous
 62
     0
370
    -2
100
AcDbLine
 10
441.4031174491261
 20
365.1587325360972
 30
0.0
 11
441.4031174491261
 21
348.4520828718179
 31
0.0
  0
LINE
  5
1068
330
FA4
100
AcDbEntity
  8
寸法
  6
Continuous
 62
     0
370
    -2
100
AcDbLine
 10
408.903117449126
 20
349.7020828718179
 30
0.0
 11
438.903117449126
 21
349.7020828718179
 31
0.0
  0
SOLID
  5
1069
330
FA4
100
AcDbEntity
  8
寸法
  6
Continuous
 62
     0
100
AcDbTrace
 10
408.903117449126
 20
350.1187495384846
 30
0.0
 11
408.903117449126
 21
349.2854162051513
 31
0.0
 12
406.403117449126
 22
349.7020828718179
 32
0.0
 13
406.403117449126
 23
349.7020828718179
 33
0.0
  0
SOLID
  5
106A
330
FA4
100
AcDbEntity
  8
寸法
  6
Continuous
 62
     0
100
AcDbTrace
 10
438.903117449126
 20
350.1187495384846
 30
0.0
 11
438.903117449126
 21
349.2854162051513
 31
0.0
 12
441.4031174491261
 22
349.7020828718179
 32
0.0
 13
441.4031174491261
 23
349.7020828718179
 33
0.0
  0
MTEXT
  5
106B
330
FA4
100
AcDbEntity
  8
寸法
  6
Continuous
 62
     4
100
AcDbMText
 10
423.903117449126
 20
352.3270828718179
 30
0.0
 40
4.0
 41
0.0
 71
     5
 72
     1
  1
35
 73
     1
 44
1.0
1001
ACAD
1000
MTEXTBEGIN
1070
    73
1070
     1
1070
    44
1040
1.0
1070
    74
1070
     0
1000
MTEXTEND
  0
POINT
  5
106C
330
FA4
100
AcDbEntity
  8
DEFPOINTS
  6
Continuous
 62
     0
100
AcDbPoint
 10
406.403117449126
 20
365.7837325360972
 30
0.0
  0
POINT
  5
106D
330
FA4
100
AcDbEntity
  8
DEFPOINTS
  6
Continuous
 62
     0
100
AcDbPoint
 10
441.4031174491261
 20
365.7837325360972
 30
0.0
  0
POINT
  5
106E
330
FA4
100
AcDbEntity
  8
DEFPOINTS
  6
Continuous
 62
     0
100
AcDbPoint
 10
441.4031174491261
 20
349.7020828718179
 30
0.0
  0
ENDBLK
  5
FA6
330
FA4
100
AcDbEntity
  8
0
100
AcDbBlockEnd
  0
BLOCK
  5
FB2
330
FB1
100
AcDbEntity
  8
0
100
AcDbBlockBegin
  2
*D7
 70
     1
 10
0.0
 20
0.0
 30
0.0
  3
*D7
  1

  0
LINE
  5
106F
330
FB1
100
AcDbEntity
  8
寸法
  6
Continuous
 62
     0
370
    -2
100
AcDbLine
 10
468.1971317724305
 20
364.1301850762715
 30
0.0
 11
468.1971317724305
 21
348.4520828718179
 31
0.0
  0
LINE
  5
1070
330
FB1
100
AcDbEntity
  8
寸法
  6
Continuous
 62
     0
370
    -2
100
AcDbLine
 10
486.4971317724305
 20
365.5540940762047
 30
0.0
 11
486.4971317724305
 21
348.4520828718179
 31
0.0
  0
LINE
  5
1071
330
FB1
100
AcDbEntity
  8
寸法
  6
Continuous
 62
     0
370
    -2
100
AcDbLine
 10
470.6971317724305
 20
349.7020828718179
 30
0.0
 11
483.9971317724304
 21
349.7020828718179
 31
0.0
  0
SOLID
  5
1072
330
FB1
100
AcDbEntity
  8
寸法
  6
Continuous
 62
     0
100
AcDbTrace
 10
470.6971317724305
 20
350.1187495384846
 30
0.0
 11
470.6971317724305
 21
349.2854162051513
 31
0.0
 12
468.1971317724305
 22
349.7020828718179
 32
0.0
 13
468.1971317724305
 23
349.7020828718179
 33
0.0
  0
SOLID
  5
1073
330
FB1
100
AcDbEntity
  8
寸法
  6
Continuous
 62
     0
100
AcDbTrace
 10
483.9971317724304
 20
350.1187495384846
 30
0.0
 11
483.9971317724304
 21
349.2854162051513
 31
0.0
 12
486.4971317724305
 22
349.7020828718179
 32
0.0
 13
486.4971317724305
 23
349.7020828718179
 33
0.0
  0
MTEXT
  5
1074
330
FB1
100
AcDbEntity
  8
寸法
  6
Continuous
 62
     4
100
AcDbMText
 10
477.3471317724305
 20
352.6604162051512
 30
0.0
 40
4.0
 41
0.0
 71
     5
 72
     1
  1
18,3
 73
     1
 44
1.0
1001
ACAD
1000
MTEXTBEGIN
1070
    73
1070
     1
1070
    44
1040
1.0
1070
    74
1070
     0
1000
MTEXTEND
  0
POINT
  5
1075
330
FB1
100
AcDbEntity
  8
DEFPOINTS
  6
Continuous
 62
     0
100
AcDbPoint
 10
468.1971317724305
 20
364.7551850762715
 30
0.0
  0
POINT
  5
1076
330
FB1
100
AcDbEntity
  8
DEFPOINTS
  6
Continuous
 62
     0
100
AcDbPoint
 10
486.4971317724305
 20
366.1790940762047
 30
0.0
  0
POINT
  5
1077
330
FB1
100
AcDbEntity
  8
DEFPOINTS
  6
Continuous
 62
     0
100
AcDbPoint
 10
486.4971317724305
 20
349.7020828718179
 30
0.0
  0
ENDBLK
  5
FB3
330
FB1
100
AcDbEntity
  8
0
100
AcDbBlockEnd
  0
BLOCK
  5
102D
330
102C
100
AcDbEntity
  8
0
100
AcDbBlockBegin
  2
_None
 70
     0
 10
0.0
 20
0.0
 30
0.0
  3
_None
  1

  0
ENDBLK
  5
102E
330
102C
100
AcDbEntity
  8
0
100
AcDbBlockEnd
  0
ENDSEC
  0
SECTION
  2
ENTITIES
  0
LINE
  5
2AD
330
A
100
AcDbEntity
  8
文字
  6
Continuous
 62
     7
100
AcDbLine
 10
663.6164724370469
 20
534.3867968940513
 30
0.0
 11
760.3664724370469
 21
534.3867968940513
 31
0.0
  0
LINE
  5
2AE
330
A
100
AcDbEntity
  8
文字
  6
Continuous
 62
     7
100
AcDbLine
 10
663.6164724370469
 20
529.8867968940514
 30
0.0
 11
760.3664724370469
 21
529.8867968940514
 31
0.0
  0
LINE
  5
2AF
330
A
100
AcDbEntity
  8
文字
  6
Continuous
 62
     7
100
AcDbLine
 10
663.6164724370469
 20
525.3867968940514
 30
0.0
 11
760.3664724370469
 21
525.3867968940514
 31
0.0
  0
LINE
  5
2B0
330
A
100
AcDbEntity
  8
文字
  6
Continuous
 62
     7
100
AcDbLine
 10
663.6164724370469
 20
520.8867968940514
 30
0.0
 11
760.3664724370469
 21
520.8867968940514
 31
0.0
  0
LINE
  5
2B1
330
A
100
AcDbEntity
  8
文字
  6
Continuous
 62
     7
100
AcDbLine
 10
663.6164724370469
 20
460.1367968940514
 30
0.0
 11
760.3664724370469
 21
460.1367968940514
 31
0.0
  0
LINE
  5
2B2
330
A
100
AcDbEntity
  8
文字
  6
Continuous
 62
     7
100
AcDbLine
 10
663.6164724370469
 20
455.6367968940513
 30
0.0
 11
760.3664724370469
 21
455.6367968940513
 31
0.0
  0
LINE
  5
2B3
330
A
100
AcDbEntity
  8
文字
  6
Continuous
 62
     7
100
AcDbLine
 10
663.6164724370469
 20
451.1367968940513
 30
0.0
 11
760.3664724370469
 21
451.1367968940513
 31
0.0
  0
LINE
  5
2B4
330
A
100
AcDbEntity
  8
文字
  6
Continuous
 62
     7
100
AcDbLine
 10
663.6164724370469
 20
446.6367968940513
 30
0.0
 11
760.3664724370469
 21
446.6367968940513
 31
0.0
  0
LINE
  5
2B5
330
A
100
AcDbEntity
  8
文字
  6
Continuous
 62
     7
100
AcDbLine
 10
663.6164724370469
 20
433.1367968940513
 30
0.0
 11
760.3664724370469
 21
433.1367968940513
 31
0.0
  0
LINE
  5
2B6
330
A
100
AcDbEntity
  8
文字
  6
Continuous
 62
     7
100
AcDbLine
 10
663.6164724370469
 20
415.1367968940514
 30
0.0
 11
760.3664724370469
 21
415.1367968940514
 31
0.0
  0
LINE
  5
2B7
330
A
100
AcDbEntity
  8
文字
  6
Continuous
 62
     7
100
AcDbLine
 10
703.9914724370468
 20
460.1367968940514
 30
0.0
 11
703.9914724370468
 21
415.1367968940514
 31
0.0
  0
LINE
  5
2B8
330
A
100
AcDbEntity
  8
文字
  6
Continuous
 62
     7
100
AcDbLine
 10
703.9914724370468
 20
424.1367968940513
 30
0.0
 11
760.3664724370469
 21
424.1367968940513
 31
0.0
  0
LINE
  5
2B9
330
A
100
AcDbEntity
  8
文字
  6
Continuous
 62
     7
100
AcDbLine
 10
663.6164724370469
 20
487.1367968940513
 30
0.0
 11
760.3664724370469
 21
487.1367968940513
 31
0.0
  0
LINE
  5
2BA
330
A
100
AcDbEntity
  8
文字
  6
Continuous
 62
     7
100
AcDbLine
 10
663.6164724370469
 20
482.6367968940513
 30
0.0
 11
760.3664724370469
 21
482.6367968940513
 31
0.0
  0
LINE
  5
2BB
330
A
100
AcDbEntity
  8
文字
  6
Continuous
 62
     7
100
AcDbLine
 10
663.6164724370469
 20
478.1367968940513
 30
0.0
 11
760.3664724370469
 21
478.1367968940513
 31
0.0
  0
LINE
  5
2BC
330
A
100
AcDbEntity
  8
文字
  6
Continuous
 62
     7
100
AcDbLine
 10
663.6164724370469
 20
473.6367968940514
 30
0.0
 11
760.3664724370469
 21
473.6367968940514
 31
0.0
  0
LINE
  5
2BD
330
A
100
AcDbEntity
  8
文字
  6
Continuous
 62
     7
100
AcDbLine
 10
663.6164724370469
 20
516.3867968940514
 30
0.0
 11
760.3664724370469
 21
516.3867968940514
 31
0.0
  0
LINE
  5
2BE
330
A
100
AcDbEntity
  8
文字
  6
Continuous
 62
     7
100
AcDbLine
 10
663.6164724370469
 20
415.1367968940514
 30
0.0
 11
760.3664724370469
 21
415.1367968940514
 31
0.0
  0
LINE
  5
2BF
330
A
100
AcDbEntity
  8
文字
  6
Continuous
 62
     7
100
AcDbLine
 10
663.6164724370469
 20
410.6367968940514
 30
0.0
 11
760.3664724370469
 21
410.6367968940514
 31
0.0
  0
LINE
  5
2C0
330
A
100
AcDbEntity
  8
文字
  6
Continuous
 62
     7
100
AcDbLine
 10
663.6164724370469
 20
406.1367968940514
 30
0.0
 11
760.3664724370469
 21
406.1367968940514
 31
0.0
  0
LINE
  5
2C1
330
A
100
AcDbEntity
  8
文字
  6
Continuous
 62
     7
100
AcDbLine
 10
663.6164724370469
 20
401.6367968940513
 30
0.0
 11
760.3664724370469
 21
401.6367968940513
 31
0.0
  0
LINE
  5
2C2
330
A
100
AcDbEntity
  8
文字
  6
Continuous
 62
     7
100
AcDbLine
 10
663.6164724370469
 20
397.1367968940514
 30
0.0
 11
760.3664724370469
 21
397.1367968940514
 31
0.0
  0
LINE
  5
2C3
330
A
100
AcDbEntity
  8
文字
  6
Continuous
 62
     7
100
AcDbLine
 10
663.6164724370469
 20
392.6367968940514
 30
0.0
 11
760.3664724370469
 21
392.6367968940514
 31
0.0
  0
LINE
  5
2C4
330
A
100
AcDbEntity
  8
文字
  6
Continuous
 62
     7
100
AcDbLine
 10
703.9914724370468
 20
410.6367968940514
 30
0.0
 11
703.9914724370468
 21
392.6367968940514
 31
0.0
  0
TEXT
  5
2C5
330
A
100
AcDbEntity
  8
文字
 62
     7
100
AcDbText
 10
665.1164724370469
 20
535.1367968940514
 30
0.0
 40
3.0
  1
供給電圧
 41
0.8823529411764706
 72
     5
 11
677.1164724370469
 21
535.1367968940514
 31
0.0
100
AcDbText
  0
TEXT
  5
2C6
330
A
100
AcDbEntity
  8
文字
 62
     7
100
AcDbText
 10
665.1164724370469
 20
530.6367968940513
 30
0.0
 40
3.0
  1
最小動作距離
 41
0.8653846153846149
 72
     5
 11
683.1164724370469
 21
530.6367968940513
 31
0.0
100
AcDbText
  0
TEXT
  5
2C7
330
A
100
AcDbEntity
  8
文字
 62
     7
100
AcDbText
 10
665.1164724370469
 20
526.1367968940513
 30
0.0
 40
3.0
  1
投射角度
 41
0.8823529411764704
 72
     5
 11
677.1164724370469
 21
526.1367968940513
 31
0.0
100
AcDbText
  0
TEXT
  5
2C8
330
A
100
AcDbEntity
  8
文字
 62
     7
100
AcDbText
 10
665.1164724370469
 20
521.6367968940513
 30
0.0
 40
3.0
  1
材質
 41
0.9375
 72
     5
 11
671.1164724370469
 21
521.6367968940513
 31
0.0
100
AcDbText
  0
TEXT
  5
2C9
330
A
100
AcDbEntity
  8
文字
 62
     7
100
AcDbText
 10
719.8528541141318
 20
535.1367968940514
 30
0.0
 40
3.0
  1
3V（1.5V 単4電池2本)
 41
0.6849315068493153
 72
     5
 11
749.8528541141317
 21
535.1367968940514
 31
0.0
100
AcDbText
  0
TEXT
  5
2CA
330
A
100
AcDbEntity
  8
文字
 62
     7
100
AcDbText
 10
750.9265419218695
 20
530.6367968940513
 30
0.0
 40
3.0
  1
約7m
 41
0.6976744186046515
 72
     5
 11
756.9265419218695
 21
530.6367968940513
 31
0.0
100
AcDbText
  0
TEXT
  5
2CB
330
A
100
AcDbEntity
  8
文字
 62
     7
100
AcDbText
 10
744.7005863675208
 20
526.1367968940513
 30
0.0
 40
3.0
  1
+/- 15\U+00B0
 41
0.7142857142857144
 72
     5
 11
756.7005863675208
 21
526.1367968940513
 31
0.0
100
AcDbText
  0
TEXT
  5
2CC
330
A
100
AcDbEntity
  8
文字
 62
     7
100
AcDbText
 10
752.8294384525857
 20
521.6367968940513
 30
0.0
 40
3.0
  1
ABS
 41
0.5625
 72
     5
 11
757.3294384525857
 21
521.6367968940513
 31
0.0
100
AcDbText
  0
TEXT
  5
2CD
330
A
100
AcDbEntity
  8
文字
 62
     7
100
AcDbText
 10
663.6164724370469
 20
465.3867968940513
 30
0.0
 40
3.0
  1
動作説明
 41
0.8955223880597015
 72
     5
 11
675.6164724370469
 21
465.3867968940513
 31
0.0
100
AcDbText
  0
TEXT
  5
2CE
330
A
100
AcDbEntity
  8
文字
 62
     7
100
AcDbText
 10
664.1164724370469
 20
460.8867968940513
 30
0.0
 40
3.0
  1
赤外線送信機での動作
 41
0.8522727272727269
 72
     5
 11
694.1164724370469
 21
460.8867968940513
 31
0.0
100
AcDbText
  0
TEXT
  5
2CF
330
A
100
AcDbEntity
  8
文字
 62
     7
100
AcDbText
 10
665.1164724370469
 20
456.3867968940513
 30
0.0
 40
3.0
  1
ボタン操作
 41
0.8720930232558142
 72
     5
 11
680.1164724370469
 21
456.3867968940513
 31
0.0
100
AcDbText
  0
TEXT
  5
2D0
330
A
100
AcDbEntity
  8
文字
 62
     7
100
AcDbText
 10
704.9914724370469
 20
456.3867968940513
 30
0.0
 40
3.0
  1
動作
 41
0.9375
 72
     5
 11
710.9914724370469
 21
456.3867968940513
 31
0.0
100
AcDbText
  0
TEXT
  5
2D1
330
A
100
AcDbEntity
  8
文字
 62
     7
100
AcDbText
 10
665.1164724370469
 20
451.8867968940513
 30
0.0
 40
3.0
  1
△ボタン0.1秒ON
 41
0.7894736842105265
 72
     5
 11
687.6164724370469
 21
451.8867968940513
 31
0.0
100
AcDbText
  0
TEXT
  5
2D2
330
A
100
AcDbEntity
  8
文字
 62
     7
100
AcDbText
 10
704.9914724370469
 20
451.8867968940513
 30
0.0
 40
3.0
  1
上限リミット方向に動作
 41
0.8505154639175255
 72
     5
 11
737.9914724370469
 21
451.8867968940513
 31
0.0
100
AcDbText
  0
TEXT
  5
2D3
330
A
100
AcDbEntity
  8
文字
 62
     7
100
AcDbText
 10
665.1164724370469
 20
447.3867968940513
 30
0.0
 40
3.0
  1
▼ボタン0.1秒ON
 41
0.7894736842105265
 72
     5
 11
687.6164724370469
 21
447.3867968940513
 31
0.0
100
AcDbText
  0
TEXT
  5
2D4
330
A
100
AcDbEntity
  8
文字
 62
     7
100
AcDbText
 10
704.9914724370469
 20
447.3867968940513
 30
0.0
 40
3.0
  1
下限リミット方向に動作
 41
0.8505154639175255
 72
     5
 11
737.9914724370469
 21
447.3867968940513
 31
0.0
100
AcDbText
  0
TEXT
  5
2D5
330
A
100
AcDbEntity
  8
文字
 62
     7
100
AcDbText
 10
665.1164724370469
 20
442.8867968940513
 30
0.0
 40
3.0
  1
停止ボタン0.1秒ON
 41
0.794392523364486
 72
     5
 11
690.6164724370469
 21
442.8867968940513
 31
0.0
100
AcDbText
  0
TEXT
  5
2D6
330
A
100
AcDbEntity
  8
文字
 62
     7
100
AcDbText
 10
704.9914724370469
 20
442.8867968940513
 30
0.0
 40
3.0
  1
動作中であれば停止、停止中で
 41
0.8467741935483875
 72
     5
 11
746.9914724370469
 21
442.8867968940513
 31
0.0
100
AcDbText
  0
TEXT
  5
2D7
330
A
100
AcDbEntity
  8
文字
 62
     7
100
AcDbText
 10
704.9914724370469
 20
438.3867968940514
 30
0.0
 40
3.0
  1
中間位置設定済であれば中間停
 41
0.846774193548387
 72
     5
 11
746.9914724370469
 21
438.3867968940514
 31
0.0
100
AcDbText
  0
TEXT
  5
2D8
330
A
100
AcDbEntity
  8
文字
 62
     7
100
AcDbText
 10
704.9914724370469
 20
433.8867968940514
 30
0.0
 40
3.0
  1
止位置へ移動
 41
0.8653846153846151
 72
     5
 11
722.9914724370469
 21
433.8867968940514
 31
0.0
100
AcDbText
  0
TEXT
  5
2D9
330
A
100
AcDbEntity
  8
文字
 62
     7
100
AcDbText
 10
665.1164724370469
 20
429.3867968940514
 30
0.0
 40
3.0
  1
停止ボタン　5秒ON
 41
0.7680722891566264
 72
     5
 11
690.6164724370469
 21
429.3867968940514
 31
0.0
100
AcDbText
  0
TEXT
  5
2DA
330
A
100
AcDbEntity
  8
文字
 62
     7
100
AcDbText
 10
704.9914724370469
 20
429.3867968940514
 30
0.0
 40
3.0
  1
現在位置を中間停止位置に設定
 41
0.8467741935483871
 72
     5
 11
746.9914724370469
 21
429.3867968940514
 31
0.0
100
AcDbText
  0
TEXT
  5
2DB
330
A
100
AcDbEntity
  8
文字
 62
     7
100
AcDbText
 10
704.9914724370469
 20
424.8867968940514
 30
0.0
 40
3.0
  1
(停止中)
 41
0.8695652173913044
 72
     5
 11
716.9914724370469
 21
424.8867968940514
 31
0.0
100
AcDbText
  0
TEXT
  5
2DC
330
A
100
AcDbEntity
  8
文字
 62
     7
100
AcDbText
 10
704.9914724370469
 20
420.3867968940513
 30
0.0
 40
3.0
  1
設定された中間停止位置を削除
 41
0.8467741935483871
 72
     5
 11
746.9914724370469
 21
420.3867968940513
 31
0.0
100
AcDbText
  0
TEXT
  5
2DD
330
A
100
AcDbEntity
  8
文字
 62
     7
100
AcDbText
 10
704.9914724370469
 20
415.8867968940513
 30
0.0
 40
3.0
  1
(中間停止位置停止中)
 41
0.8474576271186439
 72
     5
 11
734.9914724370469
 21
415.8867968940513
 31
0.0
100
AcDbText
  0
TEXT
  5
2DE
330
A
100
AcDbEntity
  8
文字
 62
     7
100
AcDbText
 10
664.1164724370469
 20
411.3867968940513
 30
0.0
 40
3.0
  1
メンテナンスボタン操作での動作
 41
0.6296448367112236
 72
     5
 11
697.6135777500839
 21
411.3867968940513
 31
0.0
100
AcDbText
  0
TEXT
  5
2DF
330
A
100
AcDbEntity
  8
文字
 62
     7
100
AcDbText
 10
664.1164724370469
 20
539.6367968940514
 30
0.0
 40
3.0
  1
送信機仕様
 41
0.8720930232558139
 72
     5
 11
679.1164724370469
 21
539.6367968940514
 31
0.0
100
AcDbText
  0
TEXT
  5
2E0
330
A
100
AcDbEntity
  8
文字
 62
     7
100
AcDbText
 10
665.1164724370469
 20
487.8867968940514
 30
0.0
 40
3.0
  1
電源電圧
 41
0.8823529411764706
 72
     5
 11
677.1164724370469
 21
487.8867968940514
 31
0.0
100
AcDbText
  0
TEXT
  5
2E1
330
A
100
AcDbEntity
  8
文字
 62
     7
100
AcDbText
 10
665.1164724370469
 20
483.3867968940514
 30
0.0
 40
3.0
  1
操作方法
 41
0.8823529411764706
 72
     5
 11
677.1164724370469
 21
483.3867968940514
 31
0.0
100
AcDbText
  0
TEXT
  5
2E2
330
A
100
AcDbEntity
  8
文字
 62
     7
100
AcDbText
 10
665.1164724370469
 20
478.8867968940514
 30
0.0
 40
3.0
  1
設置場所
 41
0.8823529411764702
 72
     5
 11
677.1164724370469
 21
478.8867968940514
 31
0.0
100
AcDbText
  0
TEXT
  5
2E3
330
A
100
AcDbEntity
  8
文字
 62
     7
100
AcDbText
 10
665.1164724370469
 20
474.3867968940513
 30
0.0
 40
3.0
  1
使用温度範囲
 41
0.8737864077669904
 72
     5
 11
683.1164724370469
 21
474.3867968940513
 31
0.0
100
AcDbText
  0
TEXT
  5
2E4
330
A
100
AcDbEntity
  8
文字
 62
     7
100
AcDbText
 10
712.0607048748074
 20
487.8867968940514
 30
0.0
 40
3.0
  1
モータより供給(約 DC 9V)
 41
0.7438016528925621
 72
     5
 11
748.0607048748074
 21
487.8867968940514
 31
0.0
100
AcDbText
  0
TEXT
  5
2E5
330
A
100
AcDbEntity
  8
文字
 62
     7
100
AcDbText
 10
700.3700799589316
 20
483.3867968940514
 30
0.0
 40
3.0
  1
赤外線リモコン、搭載のメンテナンスボタン
 41
0.7024107696214782
 72
     5
 11
750.2412446020566
 21
483.3867968940514
 31
0.0
100
AcDbText
  0
TEXT
  5
2E6
330
A
100
AcDbEntity
  8
文字
 62
     7
100
AcDbText
 10
743.2005863675207
 20
478.8867968940514
 30
0.0
 40
3.0
  1
屋内専用
 41
0.8955223880597015
 72
     5
 11
755.2005863675208
 21
478.8867968940514
 31
0.0
100
AcDbText
  0
TEXT
  5
2E7
330
A
100
AcDbEntity
  8
文字
 62
     7
100
AcDbText
 10
741.2593144049897
 20
474.3867968940513
 30
0.0
 40
3.0
  1
0～+40℃
 41
0.7848837209302325
 72
     5
 11
754.7593144049897
 21
474.3867968940513
 31
0.0
100
AcDbText
  0
TEXT
  5
2E8
330
A
100
AcDbEntity
  8
文字
 62
     7
100
AcDbText
 10
664.1164724370469
 20
492.3867968940514
 30
0.0
 40
3.0
  1
受光部仕様
 41
0.8720930232558137
 72
     5
 11
679.1164724370469
 21
492.3867968940514
 31
0.0
100
AcDbText
  0
TEXT
  5
2E9
330
A
100
AcDbEntity
  8
文字
 62
     7
100
AcDbText
 10
665.1164724370469
 20
517.1367968940513
 30
0.0
 40
3.0
  1
重量
 41
0.9375000000000001
 72
     5
 11
671.1164724370469
 21
517.1367968940513
 31
0.0
100
AcDbText
  0
TEXT
  5
2EA
330
A
100
AcDbEntity
  8
文字
 62
     7
100
AcDbText
 10
752.8294384525857
 20
517.1367968940513
 30
0.0
 40
3.0
  1
33g
 41
0.5625
 72
     5
 11
757.3294384525857
 21
517.1367968940513
 31
0.0
100
AcDbText
  0
TEXT
  5
2EB
330
A
100
AcDbEntity
  8
文字
 62
     7
100
AcDbText
 10
665.1164724370469
 20
512.6367968940513
 30
0.0
 40
3.0
  1
※送信機の操作可能範囲及び距離等は、設置環境(壁の
 41
0.8409610983981698
 72
     5
 11
738.6164724370469
 21
512.6367968940513
 31
0.0
100
AcDbText
  0
TEXT
  5
2EC
330
A
100
AcDbEntity
  8
文字
 62
     7
100
AcDbText
 10
665.1164724370469
 20
508.1367968940513
 30
0.0
 40
3.0
  1
材質や表面形状による反射や蛍光灯等の影響)及び電池
 41
0.83904109589041
 72
     5
 11
738.6164724370469
 21
508.1367968940513
 31
0.0
100
AcDbText
  0
TEXT
  5
2ED
330
A
100
AcDbEntity
  8
文字
 62
     7
100
AcDbText
 10
665.1164724370469
 20
503.6367968940513
 30
0.0
 40
3.0
  1
レベル等により変わることから表記の値は目安で保証
 41
0.8411214953271031
 72
     5
 11
737.1164724370469
 21
503.6367968940513
 31
0.0
100
AcDbText
  0
TEXT
  5
2EE
330
A
100
AcDbEntity
  8
文字
 62
     7
100
AcDbText
 10
665.1164724370469
 20
499.1367968940513
 30
0.0
 40
3.0
  1
値ではありません。
 41
0.9060402684563756
 72
     5
 11
692.1164724370469
 21
499.1367968940513
 31
0.0
100
AcDbText
  0
TEXT
  5
2EF
330
A
100
AcDbEntity
  8
文字
 62
     7
100
AcDbText
 10
665.1164724370469
 20
406.8867968940513
 30
0.0
 40
3.0
  1
状態
 41
0.9375000000000001
 72
     5
 11
671.1164724370469
 21
406.8867968940513
 31
0.0
100
AcDbText
  0
TEXT
  5
2F0
330
A
100
AcDbEntity
  8
文字
 62
     7
100
AcDbText
 10
704.9914724370469
 20
406.8867968940513
 30
0.0
 40
3.0
  1
動作
 41
0.9375
 72
     5
 11
710.9914724370469
 21
406.8867968940513
 31
0.0
100
AcDbText
  0
TEXT
  5
2F1
330
A
100
AcDbEntity
  8
文字
 62
     7
100
AcDbText
 10
665.1164724370469
 20
402.3867968940513
 30
0.0
 40
3.0
  1
動作中
 41
0.9183673469387754
 72
     5
 11
674.1164724370469
 21
402.3867968940513
 31
0.0
100
AcDbText
  0
TEXT
  5
2F2
330
A
100
AcDbEntity
  8
文字
 62
     7
100
AcDbText
 10
704.9914724370469
 20
402.3867968940513
 30
0.0
 40
3.0
  1
停止
 41
0.9375
 72
     5
 11
710.9914724370469
 21
402.3867968940513
 31
0.0
100
AcDbText
  0
TEXT
  5
2F3
330
A
100
AcDbEntity
  8
文字
 62
     7
100
AcDbText
 10
665.1164724370469
 20
397.8867968940514
 30
0.0
 40
3.0
  1
停止中
 41
0.9183673469387754
 72
     5
 11
674.1164724370469
 21
397.8867968940514
 31
0.0
100
AcDbText
  0
TEXT
  5
2F4
330
A
100
AcDbEntity
  8
文字
 62
     7
100
AcDbText
 10
704.9914724370469
 20
397.8867968940514
 30
0.0
 40
3.0
  1
前回動作と逆方向に動作
 41
0.8505154639175252
 72
     5
 11
737.9914724370469
 21
397.8867968940514
 31
0.0
100
AcDbText
  0
TEXT
  5
2F5
330
A
100
AcDbEntity
  8
文字
 62
     7
100
AcDbText
 10
665.1164724370469
 20
393.3867968940514
 30
0.0
 40
3.0
  1
接続直後の初めての操作
 41
0.8505154639175259
 72
     5
 11
698.1164724370469
 21
393.3867968940514
 31
0.0
100
AcDbText
  0
TEXT
  5
2F6
330
A
100
AcDbEntity
  8
文字
 62
     7
100
AcDbText
 10
704.9914724370469
 20
393.3867968940514
 30
0.0
 40
3.0
  1
下限リミット方向に動作
 41
0.8505154639175255
 72
     5
 11
737.9914724370469
 21
393.3867968940514
 31
0.0
100
AcDbText
  0
LINE
  5
811
330
A
100
AcDbEntity
  8
一般
  6
Continuous
 62
     7
100
AcDbLine
 10
579.2574095300844
 20
361.3239347605437
 30
0.0
 11
564.7574095300852
 21
361.3239347605435
 31
0.0
  0
LINE
  5
812
330
A
100
AcDbEntity
  8
一般
  6
Continuous
 62
     7
100
AcDbLine
 10
579.2574095300844
 20
361.3239347605437
 30
0.0
 11
579.2574095300851
 21
346.8239347605439
 31
0.0
  0
LINE
  5
813
330
A
100
AcDbEntity
  8
一般
  6
Continuous
 62
     7
100
AcDbLine
 10
579.2574095300851
 20
346.8239347605439
 30
0.0
 11
564.7574095300852
 21
346.8239347605432
 31
0.0
  0
LINE
  5
814
330
A
100
AcDbEntity
  8
一般
  6
Continuous
 62
     7
100
AcDbLine
 10
564.7574095300852
 20
361.3239347605435
 30
0.0
 11
564.7574095300852
 21
346.8239347605432
 31
0.0
  0
LINE
  5
815
330
A
100
AcDbEntity
  8
一般
  6
Continuous
 62
     7
100
AcDbLine
 10
586.5074095300847
 20
334.073934760538
 30
0.0
 11
557.5074095300855
 21
334.0739347605378
 31
0.0
  0
LINE
  5
816
330
A
100
AcDbEntity
  8
一般
  6
Continuous
 62
     7
100
AcDbLine
 10
557.0074095300851
 20
334.5739347605378
 30
0.0
 11
557.0074095300849
 21
373.5739347605373
 31
0.0
  0
LINE
  5
817
330
A
100
AcDbEntity
  8
一般
  6
Continuous
 62
     7
100
AcDbLine
 10
586.507409530084
 20
374.0739347605373
 30
0.0
 11
557.5074095300849
 21
374.0739347605373
 31
0.0
  0
LINE
  5
818
330
A
100
AcDbEntity
  8
一般
  6
Continuous
 62
     7
100
AcDbLine
 10
587.0074095300847
 20
334.5739347605382
 30
0.0
 11
587.007409530084
 21
373.5739347605373
 31
0.0
  0
LINE
  5
819
330
A
100
AcDbEntity
  8
一般
  6
Continuous
 62
     7
100
AcDbLine
 10
631.7326665719634
 20
374.0739347605364
 30
0.0
 11
631.7326665719632
 21
334.0739347605346
 31
0.0
  0
LINE
  5
81A
330
A
100
AcDbEntity
  8
一般
  6
Continuous
 62
     7
100
AcDbLine
 10
613.7326665719639
 20
373.5739347605357
 30
0.0
 11
613.7326665719633
 21
334.5739347605335
 31
0.0
  0
LINE
  5
81B
330
A
100
AcDbEntity
  8
一般
  6
Continuous
 62
     7
100
AcDbLine
 10
614.2326665719639
 20
374.0739347605357
 30
0.0
 11
633.2326665719635
 21
374.0739347605362
 31
0.0
  0
LINE
  5
81C
330
A
100
AcDbEntity
  8
一般
  6
Continuous
 62
     7
100
AcDbLine
 10
614.2326665719632
 20
334.0739347605337
 30
0.0
 11
633.2326665719636
 21
334.073934760533
 31
0.0
  0
LINE
  5
81D
330
A
100
AcDbEntity
  8
一般
  6
Continuous
 62
     7
100
AcDbLine
 10
633.7326665719634
 20
373.5739347605362
 30
0.0
 11
633.7326665719636
 21
334.5739347605328
 31
0.0
  0
CIRCLE
  5
822
330
A
100
AcDbEntity
  8
一般
  6
Continuous
 62
     7
100
AcDbCircle
 10
562.0074095300915
 20
339.0739347605373
 30
0.0
 40
1.5
  0
CIRCLE
  5
823
330
A
100
AcDbEntity
  8
一般
  6
Continuous
 62
     7
100
AcDbCircle
 10
622.7326665719648
 20
369.0739347605353
 30
0.0
 40
1.5
  0
CIRCLE
  5
824
330
A
100
AcDbEntity
  8
一般
  6
Continuous
 62
     7
100
AcDbCircle
 10
622.7326665719612
 20
369.0739347605396
 30
0.0
 40
1.5
  0
ARC
  5
825
330
A
100
AcDbEntity
  8
一般
  6
Continuous
 62
     7
100
AcDbCircle
 10
586.5074095300847
 20
334.573934760538
 30
0.0
 40
0.5
100
AcDbArc
 50
270.0
 51
0.0
  0
ARC
  5
826
330
A
100
AcDbEntity
  8
一般
  6
Continuous
 62
     7
100
AcDbCircle
 10
557.5074095300855
 20
334.5739347605378
 30
0.0
 40
0.5
100
AcDbArc
 50
180.0
 51
270.0
  0
ARC
  5
827
330
A
100
AcDbEntity
  8
一般
  6
Continuous
 62
     7
100
AcDbCircle
 10
557.5074095300849
 20
373.5739347605373
 30
0.0
 40
0.5
100
AcDbArc
 50
90.0
 51
180.0
  0
ARC
  5
828
330
A
100
AcDbEntity
  8
一般
  6
Continuous
 62
     7
100
AcDbCircle
 10
586.507409530084
 20
373.5739347605373
 30
0.0
 40
0.5
100
AcDbArc
 50
0.0
 51
90.0
  0
ARC
  5
829
330
A
100
AcDbEntity
  8
一般
  6
Continuous
 62
     7
100
AcDbCircle
 10
614.2326665719632
 20
334.5739347605335
 30
0.0
 40
0.5
100
AcDbArc
 50
180.0
 51
270.0
  0
ARC
  5
82A
330
A
100
AcDbEntity
  8
一般
  6
Continuous
 62
     7
100
AcDbCircle
 10
614.2326665719639
 20
373.5739347605357
 30
0.0
 40
0.5
100
AcDbArc
 50
90.0
 51
179.999999999987
  0
ARC
  5
82B
330
A
100
AcDbEntity
  8
一般
  6
Continuous
 62
     7
100
AcDbCircle
 10
633.2326665719635
 20
373.5739347605362
 30
0.0
 40
0.5
100
AcDbArc
 50
359.999999999987
 51
90.0
  0
ARC
  5
82C
330
A
100
AcDbEntity
  8
一般
  6
Continuous
 62
     7
100
AcDbCircle
 10
633.2326665719636
 20
334.5739347605328
 30
0.0
 40
0.5
100
AcDbArc
 50
270.0
 51
0.0
  0
LINE
  5
880
330
A
100
AcDbEntity
  8
LAYER00005
  6
Continuous
 62
     4
100
AcDbLine
 10
772.4366920542754
 20
557.8325136612022
 30
0.0
 11
772.4366920542757
 21
260.8325136612023
 31
0.0
  0
LINE
  5
881
330
A
100
AcDbEntity
  8
LAYER00005
  6
Continuous
 62
     4
100
AcDbLine
 10
352.4366920542757
 20
260.8325136612021
 30
0.0
 11
772.4366920542757
 21
260.8325136612023
 31
0.0
  0
LINE
  5
882
330
A
100
AcDbEntity
  8
LAYER00005
  6
Continuous
 62
     4
100
AcDbLine
 10
352.4366920542757
 20
557.832513661202
 30
0.0
 11
352.4366920542757
 21
260.8325136612021
 31
0.0
  0
LINE
  5
883
330
A
100
AcDbEntity
  8
LAYER00005
  6
Continuous
 62
     4
100
AcDbLine
 10
352.4366920542757
 20
557.832513661202
 30
0.0
 11
772.4366920542754
 21
557.8325136612022
 31
0.0
  0
LINE
  5
884
330
A
100
AcDbEntity
  8
LAYER00005
  6
Continuous
 62
     2
100
AcDbLine
 10
762.4366920542755
 20
270.8325136612022
 30
0.0
 11
362.4366920597152
 21
270.8325136612022
 31
0.0
  0
LINE
  5
885
330
A
100
AcDbEntity
  8
LAYER00005
  6
Continuous
 62
     2
100
AcDbLine
 10
367.4366920596477
 20
270.832513661203
 30
0.0
 11
367.4366920596477
 21
290.8325136609308
 31
0.0
  0
LINE
  5
8A7
330
A
100
AcDbEntity
  8
LAYER00005
  6
Continuous
 62
     2
100
AcDbLine
 10
762.4366920542755
 20
547.8325136612023
 30
0.0
 11
762.4366920542755
 21
270.8325136612022
 31
0.0
  0
LINE
  5
8A8
330
A
100
AcDbEntity
  8
LAYER00005
  6
Continuous
 62
     2
100
AcDbLine
 10
362.4366920597152
 20
270.8325136612022
 30
0.0
 11
362.4366920597152
 21
547.8325136612023
 31
0.0
  0
LINE
  5
8A9
330
A
100
AcDbEntity
  8
LAYER00005
  6
Continuous
 62
     2
100
AcDbLine
 10
762.4366920542755
 20
547.8325136612023
 30
0.0
 11
362.4366920597152
 21
547.8325136612023
 31
0.0
  0
LINE
  5
8AA
330
A
100
AcDbEntity
  8
LAYER00005
  6
Continuous
 62
     2
100
AcDbLine
 10
762.4366920542763
 20
290.8325136609308
 30
0.0
 11
362.4366920597168
 21
290.8325136609308
 31
0.0
  0
LINE
  5
8E1
330
A
100
AcDbEntity
  8
0
  6
Continuous
 62
     2
100
AcDbLine
 10
547.0074095300792
 20
366.0739347605442
 30
0.0
 11
547.0074095300792
 21
342.0739347605441
 31
0.0
  0
LINE
  5
8E2
330
A
100
AcDbEntity
  8
0
  6
Continuous
 62
     2
100
AcDbLine
 10
557.0074095300851
 20
342.0739347605437
 30
0.0
 11
547.0074095300792
 21
342.0739347605441
 31
0.0
  0
LINE
  5
8E3
330
A
100
AcDbEntity
  8
0
  6
Continuous
 62
     2
100
AcDbLine
 10
557.0074095300849
 20
366.0739347605437
 30
0.0
 11
547.0074095300792
 21
366.0739347605442
 31
0.0
  0
LINE
  5
8E4
330
A
100
AcDbEntity
  8
0
  6
Continuous
 62
     7
100
AcDbLine
 10
552.0353386393508
 20
354.0739347605192
 30
0.0
 11
542.4183765871323
 21
354.0739347605664
 31
0.0
  0
LINE
  5
8E5
330
A
100
AcDbEntity
  8
0
  6
Continuous
 62
     7
100
AcDbLine
 10
547.0074095300806
 20
355.5739347605642
 30
0.0
 11
547.1642022249834
 21
352.5821519174993
 31
0.0
  0
LINE
  5
8E6
330
A
100
AcDbEntity
  8
0
  6
Continuous
 62
     7
100
AcDbLine
 10
547.6074095300805
 20
355.5739347605642
 30
0.0
 11
547.7642022249837
 21
352.5821519174993
 31
0.0
  0
LINE
  5
8E7
330
A
100
AcDbEntity
  8
0
  6
Continuous
 62
     7
100
AcDbLine
 10
547.0074095300822
 20
352.5739347605516
 30
0.0
 11
550.0074095300852
 21
352.5739347605571
 31
0.0
  0
LINE
  5
8E8
330
A
100
AcDbEntity
  8
0
  6
Continuous
 62
     7
100
AcDbLine
 10
547.0074095300811
 20
355.5739347605499
 30
0.0
 11
550.0074095300846
 21
355.5739347605307
 31
0.0
  0
LINE
  5
8E9
330
A
100
AcDbEntity
  8
0
  6
Continuous
 62
     7
100
AcDbLine
 10
548.2074095300804
 20
355.5739347605642
 30
0.0
 11
548.3642022249837
 21
352.5821519174993
 31
0.0
  0
LINE
  5
8EA
330
A
100
AcDbEntity
  8
0
  6
Continuous
 62
     7
100
AcDbLine
 10
545.2449095300362
 20
357.8239347605644
 30
0.0
 11
545.2449095303443
 21
350.3239347605278
 31
0.0
  0
LINE
  5
8EB
330
A
100
AcDbEntity
  8
0
  6
Continuous
 62
     7
100
AcDbLine
 10
545.2449095303443
 20
350.3239347605278
 30
0.0
 11
545.8074095301395
 21
350.3239347604184
 31
0.0
  0
LINE
  5
8EC
330
A
100
AcDbEntity
  8
0
  6
Continuous
 62
     7
100
AcDbLine
 10
545.8074095300223
 20
357.8239347605767
 30
0.0
 11
545.8074095301395
 21
350.3239347604184
 31
0.0
  0
LINE
  5
8ED
330
A
100
AcDbEntity
  8
0
  6
Continuous
 62
     7
100
AcDbLine
 10
545.2449095300362
 20
357.8239347605644
 30
0.0
 11
545.8074095300223
 21
357.8239347605767
 31
0.0
  0
LINE
  5
8EE
330
A
100
AcDbEntity
  8
0
  6
Continuous
 62
     7
100
AcDbLine
 10
544.4949095301915
 20
357.1114347605625
 30
0.0
 11
544.4949095304698
 21
351.0364347605038
 31
0.0
  0
LINE
  5
8EF
330
A
100
AcDbEntity
  8
0
  6
Continuous
 62
     7
100
AcDbLine
 10
541.7949095373333
 20
355.6114347495628
 30
0.0
 11
541.7949095313193
 21
352.5364347524832
 31
0.0
  0
LINE
  5
8F0
330
A
100
AcDbEntity
  8
0
  6
Continuous
 62
     7
100
AcDbLine
 10
543.2949095205422
 20
357.1114347368424
 30
0.0
 11
544.4949095301915
 21
357.1114347605625
 31
0.0
  0
LINE
  5
8F1
330
A
100
AcDbEntity
  8
0
  6
Continuous
 62
     7
100
AcDbLine
 10
543.2949095651963
 20
351.0364347263172
 30
0.0
 11
544.4949095304698
 21
351.0364347605038
 31
0.0
  0
LINE
  5
8F2
330
A
100
AcDbEntity
  8
0
  6
Continuous
 62
     7
100
AcDbLine
 10
545.8074095316375
 20
352.5739347607049
 30
0.0
 11
552.4949095304
 21
352.573934761417
 31
0.0
  0
LINE
  5
8F3
330
A
100
AcDbEntity
  8
0
  6
Continuous
 62
     7
100
AcDbLine
 10
552.4949095302631
 20
355.5739347617956
 30
0.0
 11
552.4949095304
 21
352.573934761417
 31
0.0
  0
LINE
  5
8F4
330
A
100
AcDbEntity
  8
0
  6
Continuous
 62
     7
100
AcDbLine
 10
545.807409531591
 20
355.5739347618986
 30
0.0
 11
552.4949095302631
 21
355.5739347617956
 31
0.0
  0
LINE
  5
8F5
330
A
100
AcDbEntity
  8
0
  6
Continuous
 62
     2
100
AcDbLine
 10
548.6074095300796
 20
366.0739347605442
 30
0.0
 11
548.6074095300796
 21
342.0739347605441
 31
0.0
  0
ARC
  5
8F6
330
A
100
AcDbEntity
  8
0
  6
Continuous
 62
     7
100
AcDbCircle
 10
544.8699095302572
 20
351.6739347603933
 30
0.0
 40
0.3749999998560725
100
AcDbArc
 50
180.0000000026055
 51
0.0000000023970696
  0
ARC
  5
8F7
330
A
100
AcDbEntity
  8
0
  6
Continuous
 62
     7
100
AcDbCircle
 10
544.8699095300469
 20
356.4739347607082
 30
0.0
 40
0.3749999998659632
100
AcDbArc
 50
0.0000000023970696
 51
180.0000000026055
  0
ARC
  5
8F8
330
A
100
AcDbEntity
  8
0
  6
Continuous
 62
     7
100
AcDbCircle
 10
543.2949095373276
 20
355.6114347498507
 30
0.0
 40
1.5
100
AcDbArc
 50
90.00000064124217
 51
180.0000000109952
  0
ARC
  5
8F9
330
A
100
AcDbEntity
  8
0
  6
Continuous
 62
     7
100
AcDbCircle
 10
543.2949095313222
 20
352.5364347525036
 30
0.0
 40
1.5
100
AcDbArc
 50
180.0000000007816
 51
270.0000012939225
  0
LINE
  5
914
330
A
100
AcDbEntity
  8
0
  6
Continuous
 62
     2
100
AcDbLine
 10
634.9326665719635
 20
366.0739347605448
 30
0.0
 11
634.9326665719631
 21
342.073934760543
 31
0.0
  0
LINE
  5
915
330
A
100
AcDbEntity
  8
0
  6
Continuous
 62
     7
100
AcDbLine
 10
631.9576665719002
 20
351.0739347605037
 30
0.0
 11
631.9576665719002
 21
357.0739347605096
 31
0.0
  0
LINE
  5
916
330
A
100
AcDbEntity
  8
0
  6
Continuous
 62
     7
100
AcDbLine
 10
633.4576665719866
 20
352.5739347605446
 30
0.0
 11
633.4576665719866
 21
355.5739347606792
 31
0.0
  0
LINE
  5
917
330
A
100
AcDbEntity
  8
0
  6
Continuous
 62
     7
100
AcDbLine
 10
631.957666571774
 20
351.0739347605005
 30
0.0
 11
633.4576665719558
 21
352.5739347605139
 31
0.0
  0
LINE
  5
918
330
A
100
AcDbEntity
  8
0
  6
Continuous
 62
     7
100
AcDbLine
 10
631.7326665719648
 20
351.0739347605037
 30
0.0
 11
631.957666571774
 21
351.0739347605005
 31
0.0
  0
LINE
  5
919
330
A
100
AcDbEntity
  8
0
  6
Continuous
 62
     7
100
AcDbLine
 10
631.9576665719661
 20
357.0739347605037
 30
0.0
 11
633.4576665718299
 21
355.5739347606269
 31
0.0
  0
LINE
  5
91A
330
A
100
AcDbEntity
  8
0
  6
Continuous
 62
     7
100
AcDbLine
 10
631.7326665719648
 20
357.0739347605096
 30
0.0
 11
631.9576665719661
 21
357.0739347605037
 31
0.0
  0
LINE
  5
91B
330
A
100
AcDbEntity
  8
0
  6
Continuous
 62
     7
100
AcDbLine
 10
633.4576665719558
 20
352.5739347605139
 30
0.0
 11
637.7326665719603
 21
352.5739347605269
 31
0.0
  0
LINE
  5
91C
330
A
100
AcDbEntity
  8
0
  6
Continuous
 62
     7
100
AcDbLine
 10
637.7326665719603
 20
352.5739347605269
 30
0.0
 11
637.7326665719616
 21
355.5739347606378
 31
0.0
  0
LINE
  5
91D
330
A
100
AcDbEntity
  8
0
  6
Continuous
 62
     7
100
AcDbLine
 10
633.4576665718299
 20
355.5739347606269
 30
0.0
 11
637.7326665719616
 21
355.5739347606378
 31
0.0
  0
LINE
  5
91E
330
A
100
AcDbEntity
  8
0
  6
Continuous
 62
     2
100
AcDbLine
 10
636.7326665719596
 20
351.5739347605289
 30
0.0
 11
636.7326665719603
 21
356.5739347606376
 31
0.0
  0
LINE
  5
91F
330
A
100
AcDbEntity
  8
0
  6
Continuous
 62
     2
100
AcDbLine
 10
634.9326665719607
 20
356.573934760628
 30
0.0
 11
636.7326665719603
 21
356.5739347606376
 31
0.0
  0
LINE
  5
920
330
A
100
AcDbEntity
  8
0
  6
Continuous
 62
     2
100
AcDbLine
 10
634.9326665719607
 20
351.5739347605173
 30
0.0
 11
636.7326665719596
 21
351.5739347605289
 31
0.0
  0
LINE
  5
921
330
A
100
AcDbEntity
  8
0
  6
Continuous
 62
     7
100
AcDbLine
 10
633.7326665719623
 20
352.5739347605289
 30
0.0
 11
633.8894592668654
 21
355.565717603594
 31
0.0
  0
LINE
  5
922
330
A
100
AcDbEntity
  8
0
  6
Continuous
 62
     7
100
AcDbLine
 10
634.3326665719624
 20
352.5739347605289
 30
0.0
 11
634.4894592668655
 21
355.565717603594
 31
0.0
  0
LINE
  5
923
330
A
100
AcDbEntity
  8
0
  6
Continuous
 62
     7
100
AcDbLine
 10
634.9326665719623
 20
352.5739347605289
 30
0.0
 11
635.0894592668654
 21
355.565717603594
 31
0.0
  0
LINE
  5
924
330
A
100
AcDbEntity
  8
0
  6
Continuous
 62
     7
100
AcDbLine
 10
635.5326665719625
 20
352.5739347605289
 30
0.0
 11
635.6894592668655
 21
355.565717603594
 31
0.0
  0
LINE
  5
925
330
A
100
AcDbEntity
  8
0
  6
Continuous
 62
     7
100
AcDbLine
 10
636.1326665719624
 20
352.5739347605289
 30
0.0
 11
636.2894592668655
 21
355.565717603594
 31
0.0
  0
LINE
  5
926
330
A
100
AcDbEntity
  8
0
  6
Continuous
 62
     2
100
AcDbLine
 10
634.9326665719631
 20
366.0739347605432
 30
0.0
 11
633.7326665719632
 21
366.0739347605446
 31
0.0
  0
LINE
  5
927
330
A
100
AcDbEntity
  8
0
  6
Continuous
 62
     2
100
AcDbLine
 10
634.9326665719632
 20
342.0739347605441
 30
0.0
 11
633.7326665719634
 21
342.0739347605437
 31
0.0
  0
LINE
  5
928
330
A
100
AcDbEntity
  8
図枠
  6
Continuous
 62
     2
100
AcDbLine
 10
762.4366920542755
 20
280.8318334353668
 30
0.0
 11
577.4429841432561
 21
280.8318334353668
 31
0.0
  0
LINE
  5
929
330
A
100
AcDbEntity
  8
図枠
  6
Continuous
 62
     2
100
AcDbLine
 10
684.4393449350345
 20
275.8320034918264
 30
0.0
 11
718.4381885511148
 21
275.8320034918264
 31
0.0
  0
LINE
  5
92A
330
A
100
AcDbEntity
  8
図枠
  6
Continuous
 62
     2
100
AcDbLine
 10
580.9428651037347
 20
280.3318504410128
 30
0.0
 11
578.6929416291407
 21
276.5819779833577
 31
0.0
  0
LINE
  5
92B
330
A
100
AcDbEntity
  8
図枠
  6
Continuous
 62
     2
100
AcDbLine
 10
583.1927885783284
 20
276.5819779833577
 30
0.0
 11
580.9428651037347
 21
280.3318504410128
 31
0.0
  0
LINE
  5
92C
330
A
100
AcDbEntity
  8
図枠
  6
Continuous
 62
     2
100
AcDbLine
 10
572.4431541997151
 20
270.8321735482847
 30
0.0
 11
572.4431541997152
 21
290.8325136609308
 31
0.0
  0
LINE
  5
92D
330
A
100
AcDbEntity
  8
図枠
  6
Continuous
 62
     2
100
AcDbLine
 10
577.4429841432561
 20
270.8321735482847
 30
0.0
 11
577.4429841432563
 21
290.8325136609308
 31
0.0
  0
LINE
  5
92E
330
A
100
AcDbEntity
  8
図枠
  6
Continuous
 62
     2
100
AcDbLine
 10
616.441657702876
 20
290.8325136609308
 30
0.0
 11
616.441657702876
 21
270.8321735482847
 31
0.0
  0
LINE
  5
92F
330
A
100
AcDbEntity
  8
図枠
  6
Continuous
 62
     2
100
AcDbLine
 10
608.4419297932108
 20
290.8325136609308
 30
0.0
 11
608.4419297932108
 21
270.8321735482847
 31
0.0
  0
LINE
  5
930
330
A
100
AcDbEntity
  8
図枠
  6
Continuous
 62
     2
100
AcDbLine
 10
624.4413856125422
 20
270.8321735482847
 30
0.0
 11
624.4413856125422
 21
290.8325136609308
 31
0.0
  0
LINE
  5
931
330
A
100
AcDbEntity
  8
図枠
  6
Continuous
 62
     2
100
AcDbLine
 10
624.4413856125422
 20
275.8320034918264
 30
0.0
 11
577.4429841432561
 21
275.8320034918264
 31
0.0
  0
LINE
  5
932
330
A
100
AcDbEntity
  8
図枠
  6
Continuous
 62
     2
100
AcDbLine
 10
578.6929416291407
 20
276.5819779833577
 30
0.0
 11
583.1927885783284
 21
276.5819779833577
 31
0.0
  0
LINE
  5
933
330
A
100
AcDbEntity
  8
図枠
  6
Continuous
 62
     2
100
AcDbLine
 10
578.6929416291407
 20
271.5821480398159
 30
0.0
 11
583.1927885783284
 21
271.5821480398159
 31
0.0
  0
LINE
  5
934
330
A
100
AcDbEntity
  8
図枠
  6
Continuous
 62
     2
100
AcDbLine
 10
583.1927885783284
 20
271.5821480398159
 30
0.0
 11
580.9428651037347
 21
275.3320204974717
 31
0.0
  0
LINE
  5
935
330
A
100
AcDbEntity
  8
図枠
  6
Continuous
 62
     2
100
AcDbLine
 10
580.9428651037347
 20
275.3320204974717
 30
0.0
 11
578.6929416291407
 21
271.5821480398159
 31
0.0
  0
LINE
  5
936
330
A
100
AcDbEntity
  8
図枠
  6
Continuous
 62
     2
100
AcDbLine
 10
624.4413856125422
 20
285.8316633789086
 30
0.0
 11
577.4429841432561
 21
285.8316633789086
 31
0.0
  0
LINE
  5
937
330
A
100
AcDbEntity
  8
図枠
  6
Continuous
 62
     2
100
AcDbLine
 10
580.9428651037347
 20
290.331510328095
 30
0.0
 11
578.6929416291407
 21
286.5816378704388
 31
0.0
  0
LINE
  5
938
330
A
100
AcDbEntity
  8
図枠
  6
Continuous
 62
     2
100
AcDbLine
 10
583.1927885783284
 20
286.5816378704388
 30
0.0
 11
580.9428651037347
 21
290.331510328095
 31
0.0
  0
LINE
  5
939
330
A
100
AcDbEntity
  8
図枠
  6
Continuous
 62
     2
100
AcDbLine
 10
578.6929416291407
 20
286.5816378704388
 30
0.0
 11
583.1927885783284
 21
286.5816378704388
 31
0.0
  0
LINE
  5
93A
330
A
100
AcDbEntity
  8
図枠
  6
Continuous
 62
     2
100
AcDbLine
 10
578.6929416291407
 20
281.581807926898
 30
0.0
 11
583.1927885783284
 21
281.581807926898
 31
0.0
  0
LINE
  5
93B
330
A
100
AcDbEntity
  8
図枠
  6
Continuous
 62
     2
100
AcDbLine
 10
583.1927885783284
 20
281.581807926898
 30
0.0
 11
580.9428651037347
 21
285.3316803845536
 31
0.0
  0
LINE
  5
93C
330
A
100
AcDbEntity
  8
図枠
  6
Continuous
 62
     2
100
AcDbLine
 10
580.9428651037347
 20
285.3316803845536
 30
0.0
 11
578.6929416291407
 21
281.581807926898
 31
0.0
  0
LINE
  5
93D
330
A
100
AcDbEntity
  8
図枠
  6
Continuous
 62
     2
100
AcDbLine
 10
654.4403652737887
 20
270.8321735482847
 30
0.0
 11
654.4403652737887
 21
280.8318334353668
 31
0.0
  0
LINE
  5
93E
330
A
100
AcDbEntity
  8
図枠
  6
Continuous
 62
     2
100
AcDbLine
 10
659.4401952173297
 20
280.8318334353668
 30
0.0
 11
659.4401952173297
 21
270.8321735482847
 31
0.0
  0
LINE
  5
93F
330
A
100
AcDbEntity
  8
図枠
  6
Continuous
 62
     2
100
AcDbLine
 10
684.4393449350345
 20
270.8321735482847
 30
0.0
 11
684.4393449350345
 21
280.8318334353668
 31
0.0
  0
LINE
  5
940
330
A
100
AcDbEntity
  8
図枠
  6
Continuous
 62
     2
100
AcDbLine
 10
691.0598335193549
 20
280.8318334353668
 30
0.0
 11
691.0598335193549
 21
270.8321735482847
 31
0.0
  0
LINE
  5
941
330
A
100
AcDbEntity
  8
図枠
  6
Continuous
 62
     2
100
AcDbLine
 10
629.4412155560826
 20
290.8325136609308
 30
0.0
 11
629.4412155560826
 21
270.8321735482847
 31
0.0
  0
LINE
  5
942
330
A
100
AcDbEntity
  8
図枠
  6
Continuous
 62
     2
100
AcDbLine
 10
753.9014484528756
 20
272.2965898339686
 30
0.0
 11
760.9722757685897
 21
279.367417149683
 31
0.0
  0
LINE
  5
943
330
A
100
AcDbEntity
  8
図枠
  6
Continuous
 62
     2
100
AcDbLine
 10
752.4370321671933
 20
280.8318334353668
 30
0.0
 11
752.4370321671933
 21
270.8321735482847
 31
0.0
  0
LINE
  5
944
330
A
100
AcDbEntity
  8
図枠
  6
Continuous
 62
     2
100
AcDbLine
 10
718.4381885511148
 20
275.8320034918257
 30
0.0
 11
718.4381885511148
 21
280.8318334353668
 31
0.0
  0
LINE
  5
945
330
A
100
AcDbEntity
  8
図枠
  6
Continuous
 62
     2
100
AcDbLine
 10
725.0586771354351
 20
275.8320034918264
 30
0.0
 11
725.0586771354351
 21
270.8321735482847
 31
0.0
  0
LINE
  5
946
330
A
100
AcDbEntity
  8
図枠
  6
Continuous
 62
     2
100
AcDbLine
 10
718.4381885511148
 20
275.8320034918264
 30
0.0
 11
752.4370321671949
 21
275.8320034918264
 31
0.0
  0
LINE
  5
947
330
A
100
AcDbEntity
  8
図枠
  6
Continuous
 62
     2
100
AcDbLine
 10
711.8176999667944
 20
275.8320034918264
 30
0.0
 11
711.8176999667944
 21
280.8318334353668
 31
0.0
  0
LINE
  5
948
330
A
100
AcDbEntity
  8
図枠
  6
Continuous
 62
     2
100
AcDbLine
 10
711.8176999667944
 20
275.8320034918264
 30
0.0
 11
711.8176999667944
 21
280.8318334353668
 31
0.0
  0
LINE
  5
949
330
A
100
AcDbEntity
  8
図枠
  6
Continuous
 62
     2
100
AcDbLine
 10
731.6791657197549
 20
275.8320034918264
 30
0.0
 11
731.6791657197552
 21
270.8321735482847
 31
0.0
  0
TEXT
  5
94A
330
A
100
AcDbEntity
  8
図枠
 62
     7
100
AcDbText
 10
573.4778959681088
 20
285.9576817339759
 30
0.0
 40
3.0
  1
改
 41
1.071428571428571
 72
     5
 11
576.4778959681088
 21
285.9576817339759
 31
0.0
100
AcDbText
  0
TEXT
  5
94B
330
A
100
AcDbEntity
  8
図枠
 62
     7
100
AcDbText
 10
573.4707429850191
 20
273.2651049945629
 30
0.0
 40
3.0
  1
訂
 41
1.071428571428571
 72
     5
 11
576.4707429850191
 21
273.2651049945629
 31
0.0
100
AcDbText
  0
TEXT
  5
94C
330
A
100
AcDbEntity
  8
図枠
 62
     7
100
AcDbText
 10
584.9427290585672
 20
281.3318164297212
 30
0.0
 40
3.0
  1
      ．   ．
 41
0.9466019417475727
 72
     5
 11
604.4427290585672
 21
281.3318164297212
 31
0.0
100
AcDbText
  0
TEXT
  5
94D
330
A
100
AcDbEntity
  8
図枠
 62
     7
100
AcDbText
 10
584.9427290585672
 20
286.3316463732616
 30
0.0
 40
3.0
  1
      ．   ．
 41
0.9466019417475727
 72
     5
 11
604.4427290585672
 21
286.3316463732616
 31
0.0
100
AcDbText
  0
TEXT
  5
94E
330
A
100
AcDbEntity
  8
図枠
 62
     7
100
AcDbText
 10
584.9427290585672
 20
276.3319864861792
 30
0.0
 40
3.0
  1
      ．   ．
 41
0.9466019417475727
 72
     5
 11
604.4427290585672
 21
276.3319864861792
 31
0.0
100
AcDbText
  0
TEXT
  5
94F
330
A
100
AcDbEntity
  8
図枠
 62
     7
100
AcDbText
 10
584.9427290585672
 20
271.3321565426387
 30
0.0
 40
3.0
  1
      ．   ．
 41
0.9466019417475727
 72
     5
 11
604.4427290585672
 21
271.3321565426387
 31
0.0
100
AcDbText
  0
TEXT
  5
950
330
A
100
AcDbEntity
  8
図枠
 62
     7
100
AcDbText
 10
580.1277710000297
 20
286.632068607836
 30
0.0
 40
3.0
  1
4
 41
0.75
 72
     5
 11
581.6277710000297
 21
286.632068607836
 31
0.0
100
AcDbText
  0
TEXT
  5
951
330
A
100
AcDbEntity
  8
図枠
 62
     7
100
AcDbText
 10
580.1277710000297
 20
281.6322386642952
 30
0.0
 40
3.0
  1
3
 41
0.75
 72
     5
 11
581.6277710000297
 21
281.6322386642952
 31
0.0
100
AcDbText
  0
TEXT
  5
952
330
A
100
AcDbEntity
  8
図枠
 62
     7
100
AcDbText
 10
580.1277710000297
 20
276.6324087207538
 30
0.0
 40
3.0
  1
2
 41
0.75
 72
     5
 11
581.6277710000297
 21
276.6324087207538
 31
0.0
100
AcDbText
  0
TEXT
  5
953
330
A
100
AcDbEntity
  8
図枠
 62
     7
100
AcDbText
 10
580.1277710000297
 20
271.6325787772131
 30
0.0
 40
3.0
  1
1
 41
1.5
 72
     5
 11
581.6277710000297
 21
271.6325787772131
 31
0.0
100
AcDbText
  0
TEXT
  5
954
330
A
100
AcDbEntity
  8
図枠
 62
     7
100
AcDbText
 10
726.8270400606772
 20
271.8575300569232
 30
0.0
 40
3.0
  1
No
 41
0.6000000000000001
 72
     5
 11
729.8270400606773
 21
271.8575300569232
 31
0.0
100
AcDbText
  0
TEXT
  5
955
330
A
100
AcDbEntity
  8
図枠
 62
     7
100
AcDbText
 10
712.2195461322016
 20
276.8573600004643
 30
0.0
 40
3.0
  1
型番
 41
0.9375000000000001
 72
     5
 11
718.2195461322017
 21
276.8573600004643
 31
0.0
100
AcDbText
  0
TEXT
  5
956
330
A
100
AcDbEntity
  8
図枠
 62
     7
100
AcDbText
 10
684.8350118004013
 20
276.8573600004643
 30
0.0
 40
3.0
  1
日付
 41
0.9375
 72
     5
 11
690.8350118004014
 21
276.8573600004643
 31
0.0
100
AcDbText
  0
TEXT
  5
957
330
A
100
AcDbEntity
  8
図枠
 62
     7
100
AcDbText
 10
684.8411911004419
 20
271.8575300569232
 30
0.0
 40
3.0
  1
図番
 41
0.9375
 72
     5
 11
690.8411911004418
 21
271.8575300569232
 31
0.0
100
AcDbText
  0
TEXT
  5
958
330
A
100
AcDbEntity
  8
図枠
 62
     7
100
AcDbText
 10
655.4916764716417
 20
276.9027186792063
 30
0.0
 40
3.0
  1
尺
 41
1.071428571428571
 72
     5
 11
658.4916764716417
 21
276.9027186792063
 31
0.0
100
AcDbText
  0
TEXT
  5
959
330
A
100
AcDbEntity
  8
図枠
 62
     7
100
AcDbText
 10
655.4425488866415
 20
271.8121713781811
 30
0.0
 40
3.0
  1
度
 41
1.071428571428571
 72
     5
 11
658.4425488866416
 21
271.8121713781811
 31
0.0
100
AcDbText
  0
TEXT
  5
95A
330
A
100
AcDbEntity
  8
図枠
 62
     7
100
AcDbText
 10
625.4363378501932
 20
271.8121713781811
 30
0.0
 40
3.0
  1
考
 41
1.071428571428571
 72
     5
 11
628.4363378501932
 21
271.8121713781811
 31
0.0
100
AcDbText
  0
TEXT
  5
95B
330
A
100
AcDbEntity
  8
図枠
 62
     7
100
AcDbText
 10
625.4435692253951
 20
276.9027186792063
 30
0.0
 40
3.0
  1
備
 41
1.071428571428571
 72
     5
 11
628.4435692253951
 21
276.9027186792063
 31
0.0
100
AcDbText
  0
TEXT
  5
95C
330
A
100
AcDbEntity
  8
図枠
 62
     7
100
AcDbText
 10
625.4399600162842
 20
281.8118312652629
 30
0.0
 40
3.0
  1
称
 41
1.071428571428571
 72
     5
 11
628.4399600162842
 21
281.8118312652629
 31
0.0
100
AcDbText
  0
TEXT
  5
95D
330
A
100
AcDbEntity
  8
図枠
 62
     7
100
AcDbText
 10
625.4363378501932
 20
286.9023785662885
 30
0.0
 40
3.0
  1
名
 41
1.153846153846153
 72
     5
 11
628.4363378501932
 21
286.9023785662885
 31
0.0
100
AcDbText
  0
TEXT
  5
95E
330
A
100
AcDbEntity
  8
文字
 62
     7
100
AcDbText
 10
663.8903914302343
 20
273.8320034918257
 30
0.0
 40
4.0
  1
A3 1/1
 41
0.6521739130434782
 72
     5
 11
675.8903914302343
 21
273.8320034918257
 31
0.0
100
AcDbText
  0
TEXT
  5
95F
330
A
100
AcDbEntity
  8
文字
 62
     7
100
AcDbText
 10
694.058851702091
 20
276.4873306902533
 30
0.0
 40
3.0
  1
2023.04.07.
 41
0.6734693877551022
 72
     5
 11
710.558851702091
 21
276.4873306902533
 31
0.0
100
AcDbText
  0
TEXT
  5
960
330
A
100
AcDbEntity
  8
文字
 62
     7
100
AcDbText
 10
633.9004269760375
 20
283.4533231604541
 30
0.0
 40
4.0
  1
赤外線ワイヤレスリモコンセット(WR-SG-3)
 41
0.8544303797468359
 72
     5
 11
723.9004269760376
 21
283.4533231604541
 31
0.0
100
AcDbText
  0
LINE
  5
CD9
330
A
100
AcDbEntity
  8
一般
  6
Continuous
 62
     7
100
AcDbLine
 10
575.2074095300845
 20
529.3739347605374
 30
0.0
 11
575.2074095300845
 21
526.8739347605373
 31
0.0
  0
LINE
  5
CDA
330
A
100
AcDbEntity
  8
一般
  6
Continuous
 62
     7
100
AcDbLine
 10
574.5074095300847
 20
374.0739347605373
 30
0.0
 11
574.5074095300847
 21
439.5985591860422
 31
0.0
  0
LINE
  5
CDB
330
A
100
AcDbEntity
  8
一般
  6
Continuous
 62
     7
100
AcDbLine
 10
570.7574095300847
 20
514.5739347605373
 30
0.0
 11
573.2574095300846
 21
514.5739347605373
 31
0.0
  0
LINE
  5
CDC
330
A
100
AcDbEntity
  8
一般
  6
Continuous
 62
     7
100
AcDbLine
 10
575.2074095300845
 20
529.3739347605374
 30
0.0
 11
568.8074095300847
 21
529.3739347605374
 31
0.0
  0
LINE
  5
CDD
330
A
100
AcDbEntity
  8
一般
  6
Continuous
 62
     7
100
AcDbLine
 10
568.8074095300847
 20
526.8739347605373
 30
0.0
 11
568.8074095300847
 21
529.3739347605374
 31
0.0
  0
LINE
  5
CDE
330
A
100
AcDbEntity
  8
一般
  6
Continuous
 62
     7
100
AcDbLine
 10
577.9074095300845
 20
506.5739347605373
 30
0.0
 11
566.1074095300847
 21
506.5739347605373
 31
0.0
  0
LINE
  5
CDF
330
A
100
AcDbEntity
  8
一般
  6
Continuous
 62
     7
100
AcDbLine
 10
568.8074095300847
 20
528.5739347605373
 30
0.0
 11
566.1074095300847
 21
528.5739347605373
 31
0.0
  0
LINE
  5
CE0
330
A
100
AcDbEntity
  8
一般
  6
Continuous
 62
     7
100
AcDbLine
 10
570.7574095300847
 20
514.4239347605373
 30
0.0
 11
573.2574095300846
 21
514.4239347605373
 31
0.0
  0
LINE
  5
CE1
330
A
100
AcDbEntity
  8
一般
  6
Continuous
 62
     7
100
AcDbLine
 10
569.5074095300847
 20
506.5739347605373
 30
0.0
 11
569.5074095300847
 21
441.5482539684823
 31
0.0
  0
LINE
  5
CE2
330
A
100
AcDbEntity
  8
一般
  6
Continuous
 62
     7
100
AcDbLine
 10
573.2574095300846
 20
526.8739347605373
 30
0.0
 11
573.2574095300846
 21
514.4239347605373
 31
0.0
  0
LINE
  5
CE3
330
A
100
AcDbEntity
  8
一般
  6
Continuous
 62
     7
100
AcDbLine
 10
566.1074095300847
 20
528.5739347605373
 30
0.0
 11
566.1074095300847
 21
506.5739347605373
 31
0.0
  0
LINE
  5
CE4
330
A
100
AcDbEntity
  8
一般
  6
Continuous
 62
     7
100
AcDbLine
 10
577.9074095300845
 20
528.5739347605373
 30
0.0
 11
575.2074095300845
 21
528.5739347605373
 31
0.0
  0
LINE
  5
CE5
330
A
100
AcDbEntity
  8
一般
  6
Continuous
 62
     7
100
AcDbLine
 10
577.9074095300845
 20
506.5739347605373
 30
0.0
 11
577.9074095300845
 21
528.5739347605373
 31
0.0
  0
LINE
  5
CE6
330
A
100
AcDbEntity
  8
一般
  6
Continuous
 62
     7
100
AcDbLine
 10
575.2074095300845
 20
526.8739347605373
 30
0.0
 11
568.8074095300847
 21
526.8739347605373
 31
0.0
  0
LINE
  5
CE7
330
A
100
AcDbEntity
  8
一般
  6
Continuous
 62
     7
100
AcDbLine
 10
570.7574095300847
 20
526.8739347605373
 30
0.0
 11
570.7574095300847
 21
514.4239347605373
 31
0.0
  0
LINE
  5
CE8
330
A
100
AcDbEntity
  8
一般
  6
Continuous
 62
     7
100
AcDbLine
 10
629.3326665719635
 20
374.0739347605364
 30
0.0
 11
629.3326665719635
 21
440.297983883373
 31
0.0
  0
LINE
  5
CE9
330
A
100
AcDbEntity
  8
一般
  6
Continuous
 62
     7
100
AcDbLine
 10
631.7326665719634
 20
374.0739347605364
 30
0.0
 11
631.7326665719634
 21
439.3245041273794
 31
0.0
  0
LINE
  5
CEA
330
A
100
AcDbEntity
  8
一般
  6
Continuous
 62
     7
100
AcDbLine
 10
626.2326665719634
 20
526.8739347605373
 30
0.0
 11
626.2326665719634
 21
529.3739347605374
 31
0.0
  0
LINE
  5
CEB
330
A
100
AcDbEntity
  8
一般
  6
Continuous
 62
     7
100
AcDbLine
 10
629.2326665719632
 20
529.3739347605374
 30
0.0
 11
629.2326665719632
 21
528.5739347605373
 31
0.0
  0
LINE
  5
CEC
330
A
100
AcDbEntity
  8
一般
  6
Continuous
 62
     7
100
AcDbLine
 10
626.2326665719634
 20
526.8739347605373
 30
0.0
 11
627.2326665719632
 21
526.8739347605373
 31
0.0
  0
LINE
  5
CED
330
A
100
AcDbEntity
  8
一般
  6
Continuous
 62
     7
100
AcDbLine
 10
627.2326665719632
 20
506.5739347605373
 30
0.0
 11
633.8326665719635
 21
506.5739347605373
 31
0.0
  0
LINE
  5
CEE
330
A
100
AcDbEntity
  8
一般
  6
Continuous
 62
     7
100
AcDbLine
 10
626.2326665719634
 20
529.3739347605374
 30
0.0
 11
629.2326665719632
 21
529.3739347605374
 31
0.0
  0
LINE
  5
CEF
330
A
100
AcDbEntity
  8
一般
  6
Continuous
 62
     7
100
AcDbLine
 10
624.0620643511634
 20
514.5638378485373
 30
0.0
 11
624.8499105537115
 21
514.4249193063791
 31
0.0
  0
LINE
  5
CF0
330
A
100
AcDbEntity
  8
一般
  6
Continuous
 62
     7
100
AcDbLine
 10
627.2326665719632
 20
528.5739347605373
 30
0.0
 11
633.8326665719635
 21
528.5739347605373
 31
0.0
  0
LINE
  5
CF1
330
A
100
AcDbEntity
  8
一般
  6
Continuous
 62
     7
100
AcDbLine
 10
633.8326665719635
 20
528.5739347605373
 30
0.0
 11
633.8326665719635
 21
506.5739347605373
 31
0.0
  0
LINE
  5
CF2
330
A
100
AcDbEntity
  8
一般
  6
Continuous
 62
     7
100
AcDbLine
 10
627.2326665719632
 20
528.5739347605373
 30
0.0
 11
627.2326665719632
 21
506.5739347605373
 31
0.0
  0
LINE
  5
CF3
330
A
100
AcDbEntity
  8
一般
  6
Continuous
 62
     7
100
AcDbLine
 10
624.8499105535634
 20
514.4249193055372
 30
0.0
 11
627.0450078615359
 21
526.8739347605262
 31
0.0
  0
LINE
  5
CF4
330
A
100
AcDbEntity
  8
一般
  6
Continuous
 62
     7
100
AcDbLine
 10
626.2326665719634
 20
526.8739347605373
 30
0.0
 11
624.062064351238
 21
514.5638378485241
 31
0.0
  0
DIMENSION
  5
D57
330
A
100
AcDbEntity
  8
寸法
  6
Continuous
 62
     6
100
AcDbDimension
  2
*D1
 10
532.2936473675099
 20
334.0739347605378
 30
0.0
 11
529.6686473675098
 21
354.0739347605376
 31
0.0
 70
    32
 71
     5
 42
39.99999999999949
  3
外観図
100
AcDbAlignedDimension
 13
557.5074095300849
 23
374.0739347605373
 33
0.0
 14
557.5074095300853
 24
334.0739347605378
 34
0.0
 50
90.0
100
AcDbRotatedDimension
  0
DIMENSION
  5
D71
330
A
100
AcDbEntity
  8
寸法
  6
Continuous
 62
     6
100
AcDbDimension
  2
*D2
 10
532.2936473675099
 20
528.5739347605373
 30
0.0
 11
529.6686473675098
 21
451.3239347605374
 31
0.0
 70
    32
  1
280mm
 71
     5
 42
154.5
  3
外観図
100
AcDbAlignedDimension
 13
557.5074095300849
 23
374.0739347605373
 33
0.0
 14
566.1074095300847
 24
528.5739347605373
 34
0.0
 50
90.0
100
AcDbRotatedDimension
  0
LINE
  5
DB0
330
A
100
AcDbEntity
  8
一般
  6
Continuous
 62
     7
100
AcDbLine
 10
568.7506131331227
 20
440.0600611012662
 30
0.0
 11
568.8384553176432
 21
440.1479032857865
 31
0.0
  0
LINE
  5
DB1
330
A
100
AcDbEntity
  8
一般
  6
Continuous
 62
     7
100
AcDbLine
 10
570.8083820486091
 20
440.37918574262
 30
0.0
 11
571.4656620702579
 21
439.9747057292969
 31
0.0
  0
ARC
  5
DB3
330
A
100
AcDbEntity
  8
一般
  6
Continuous
 62
     7
100
AcDbCircle
 10
567.0535568582745
 20
441.7571173761134
 30
0.0
 40
2.399999999999999
100
AcDbArc
 50
244.983106521902
 51
315.0000000000187
  0
ARC
  5
DB4
330
A
100
AcDbEntity
  8
一般
  6
Continuous
 62
     7
100
AcDbCircle
 10
569.9698261675462
 20
439.0165324358926
 30
0.0
 40
1.6
100
AcDbArc
 50
58.392497753753
 51
135.0000000002305
  0
LINE
  5
DB5
330
A
100
AcDbEntity
  8
一般
  6
Continuous
 62
     7
100
AcDbLine
 10
575.089665972075
 20
440.02687848569
 30
0.0
 11
575.1775081565955
 21
440.1147206702104
 31
0.0
  0
LINE
  5
DB6
330
A
100
AcDbEntity
  8
一般
  6
Continuous
 62
     7
100
AcDbLine
 10
577.1474348875614
 20
440.3460031270437
 30
0.0
 11
577.8047149092102
 21
439.9415231137208
 31
0.0
  0
LINE
  5
DB7
330
A
100
AcDbEntity
  8
一般
  6
Continuous
 62
     7
100
AcDbLine
 10
571.4656620702579
 20
439.9747057292969
 30
0.0
 11
572.3776845804321
 21
439.5490952245485
 31
0.0
  0
ARC
  5
DB8
330
A
100
AcDbEntity
  8
一般
  6
Continuous
 62
     7
100
AcDbCircle
 10
573.3926096972267
 20
441.7239347605373
 30
0.0
 40
2.399999999999999
100
AcDbArc
 50
244.983106521902
 51
315.0000000000186
  0
ARC
  5
DB9
330
A
100
AcDbEntity
  8
一般
  6
Continuous
 62
     7
100
AcDbCircle
 10
576.3088790064984
 20
438.9833498203165
 30
0.0
 40
1.6
100
AcDbArc
 50
58.392497753753
 51
135.0000000002305
  0
LINE
  5
DC0
330
A
100
AcDbEntity
  8
一般
  6
Continuous
 62
     7
100
AcDbLine
 10
568.7506131331227
 20
441.0600611012663
 30
0.0
 11
568.8384553176432
 21
441.1479032857865
 31
0.0
  0
LINE
  5
DC1
330
A
100
AcDbEntity
  8
一般
  6
Continuous
 62
     7
100
AcDbLine
 10
570.8083820486091
 20
441.37918574262
 30
0.0
 11
571.4656620702579
 21
440.9747057292969
 31
0.0
  0
ARC
  5
DC3
330
A
100
AcDbEntity
  8
一般
  6
Continuous
 62
     7
100
AcDbCircle
 10
567.0535568582745
 20
442.7571173761135
 30
0.0
 40
2.399999999999999
100
AcDbArc
 50
244.983106521902
 51
315.0000000000187
  0
ARC
  5
DC4
330
A
100
AcDbEntity
  8
一般
  6
Continuous
 62
     7
100
AcDbCircle
 10
569.9698261675462
 20
440.0165324358927
 30
0.0
 40
1.6
100
AcDbArc
 50
58.392497753753
 51
135.0000000002305
  0
LINE
  5
DC5
330
A
100
AcDbEntity
  8
一般
  6
Continuous
 62
     7
100
AcDbLine
 10
575.089665972075
 20
441.02687848569
 30
0.0
 11
575.1775081565955
 21
441.1147206702104
 31
0.0
  0
LINE
  5
DC6
330
A
100
AcDbEntity
  8
一般
  6
Continuous
 62
     7
100
AcDbLine
 10
577.1474348875614
 20
441.3460031270438
 30
0.0
 11
577.8047149092102
 21
440.9415231137208
 31
0.0
  0
LINE
  5
DC7
330
A
100
AcDbEntity
  8
一般
  6
Continuous
 62
     7
100
AcDbLine
 10
571.4656620702579
 20
440.9747057292969
 30
0.0
 11
572.3776845804321
 21
440.5490952245485
 31
0.0
  0
ARC
  5
DC8
330
A
100
AcDbEntity
  8
一般
  6
Continuous
 62
     7
100
AcDbCircle
 10
573.3926096972267
 20
442.7239347605373
 30
0.0
 40
2.399999999999999
100
AcDbArc
 50
244.983106521902
 51
315.0000000000186
  0
ARC
  5
DC9
330
A
100
AcDbEntity
  8
一般
  6
Continuous
 62
     7
100
AcDbCircle
 10
576.3088790064984
 20
439.9833498203165
 30
0.0
 40
1.6
100
AcDbArc
 50
58.392497753753
 51
135.0000000002305
  0
DIMENSION
  5
DF4
330
A
100
AcDbEntity
  8
寸法
  6
Continuous
 62
     6
100
AcDbDimension
  2
*D3
 10
587.0074095300847
 20
321.8973129645791
 30
0.0
 11
572.0074095300849
 21
324.5223129645792
 31
0.0
 70
    32
 71
     5
 42
29.99999999999955
  3
外観図
100
AcDbAlignedDimension
 13
557.0074095300851
 23
334.5739347605378
 33
0.0
 14
587.0074095300847
 24
334.5739347605384
 34
0.0
100
AcDbRotatedDimension
  0
DIMENSION
  5
E01
330
A
100
AcDbEntity
  8
寸法
  6
Continuous
 62
     6
100
AcDbDimension
  2
*D4
 10
633.7326665719636
 20
321.8973129645791
 30
0.0
 11
623.7326665719635
 21
324.5223129645792
 31
0.0
 70
    32
 71
     5
 42
20.00000000000046
  3
外観図
100
AcDbAlignedDimension
 13
613.7326665719633
 23
334.5739347605335
 33
0.0
 14
633.7326665719636
 24
334.5739347605328
 34
0.0
100
AcDbRotatedDimension
  0
LINE
  5
EB5
330
A
100
AcDbEntity
  8
一般
  6
Continuous
 62
     7
100
AcDbLine
 10
627.1429446352011
 20
440.0600611012662
 30
0.0
 11
627.2307868197216
 21
440.1479032857865
 31
0.0
  0
LINE
  5
EB6
330
A
100
AcDbEntity
  8
一般
  6
Continuous
 62
     7
100
AcDbLine
 10
629.2007135506874
 20
440.37918574262
 30
0.0
 11
629.8579935723363
 21
439.9747057292969
 31
0.0
  0
ARC
  5
EB7
330
A
100
AcDbEntity
  8
一般
  6
Continuous
 62
     7
100
AcDbCircle
 10
625.4458883603529
 20
441.7571173761134
 30
0.0
 40
2.399999999999999
100
AcDbArc
 50
244.983106521902
 51
315.0000000000188
  0
ARC
  5
EB8
330
A
100
AcDbEntity
  8
一般
  6
Continuous
 62
     7
100
AcDbCircle
 10
628.3621576696246
 20
439.0165324358926
 30
0.0
 40
1.6
100
AcDbArc
 50
58.39249775375288
 51
135.0000000002306
  0
LINE
  5
EB9
330
A
100
AcDbEntity
  8
一般
  6
Continuous
 62
     7
100
AcDbLine
 10
633.4819974741535
 20
440.02687848569
 30
0.0
 11
633.5698396586739
 21
440.1147206702104
 31
0.0
  0
LINE
  5
EBA
330
A
100
AcDbEntity
  8
一般
  6
Continuous
 62
     7
100
AcDbLine
 10
635.5397663896398
 20
440.3460031270437
 30
0.0
 11
636.1970464112886
 21
439.9415231137208
 31
0.0
  0
LINE
  5
EBB
330
A
100
AcDbEntity
  8
一般
  6
Continuous
 62
     7
100
AcDbLine
 10
629.8579935723363
 20
439.9747057292969
 30
0.0
 11
630.7700160825105
 21
439.5490952245485
 31
0.0
  0
ARC
  5
EBC
330
A
100
AcDbEntity
  8
一般
  6
Continuous
 62
     7
100
AcDbCircle
 10
631.7849411993051
 20
441.7239347605373
 30
0.0
 40
2.399999999999999
100
AcDbArc
 50
244.983106521902
 51
315.0000000000187
  0
ARC
  5
EBD
330
A
100
AcDbEntity
  8
一般
  6
Continuous
 62
     7
100
AcDbCircle
 10
634.7012105085768
 20
438.9833498203165
 30
0.0
 40
1.6
100
AcDbArc
 50
58.39249775375288
 51
135.0000000002306
  0
LINE
  5
EBE
330
A
100
AcDbEntity
  8
一般
  6
Continuous
 62
     7
100
AcDbLine
 10
627.1429446352011
 20
441.0600611012663
 30
0.0
 11
627.2307868197216
 21
441.1479032857865
 31
0.0
  0
LINE
  5
EBF
330
A
100
AcDbEntity
  8
一般
  6
Continuous
 62
     7
100
AcDbLine
 10
629.2007135506874
 20
441.37918574262
 30
0.0
 11
629.8579935723363
 21
440.9747057292969
 31
0.0
  0
ARC
  5
EC0
330
A
100
AcDbEntity
  8
一般
  6
Continuous
 62
     7
100
AcDbCircle
 10
625.4458883603529
 20
442.7571173761135
 30
0.0
 40
2.399999999999999
100
AcDbArc
 50
244.983106521902
 51
315.0000000000188
  0
ARC
  5
EC1
330
A
100
AcDbEntity
  8
一般
  6
Continuous
 62
     7
100
AcDbCircle
 10
628.3621576696246
 20
440.0165324358927
 30
0.0
 40
1.6
100
AcDbArc
 50
58.39249775375288
 51
135.0000000002306
  0
LINE
  5
EC2
330
A
100
AcDbEntity
  8
一般
  6
Continuous
 62
     7
100
AcDbLine
 10
633.4819974741535
 20
441.02687848569
 30
0.0
 11
633.5698396586739
 21
441.1147206702104
 31
0.0
  0
LINE
  5
EC3
330
A
100
AcDbEntity
  8
一般
  6
Continuous
 62
     7
100
AcDbLine
 10
635.5397663896398
 20
441.3460031270438
 30
0.0
 11
636.1970464112886
 21
440.9415231137208
 31
0.0
  0
LINE
  5
EC4
330
A
100
AcDbEntity
  8
一般
  6
Continuous
 62
     7
100
AcDbLine
 10
629.8579935723363
 20
440.9747057292969
 30
0.0
 11
630.7700160825105
 21
440.5490952245485
 31
0.0
  0
ARC
  5
EC5
330
A
100
AcDbEntity
  8
一般
  6
Continuous
 62
     7
100
AcDbCircle
 10
631.7849411993051
 20
442.7239347605373
 30
0.0
 40
2.399999999999999
100
AcDbArc
 50
244.983106521902
 51
315.0000000000187
  0
ARC
  5
EC6
330
A
100
AcDbEntity
  8
一般
  6
Continuous
 62
     7
100
AcDbCircle
 10
634.7012105085768
 20
439.9833498203165
 30
0.0
 40
1.6
100
AcDbArc
 50
58.39249775375288
 51
135.0000000002306
  0
LINE
  5
F1D
330
A
100
AcDbEntity
  8
一般
  6
Continuous
 62
     7
100
AcDbLine
 10
440.403117449126
 20
473.2837325360971
 30
0.0
 11
407.403117449126
 21
473.2837325360971
 31
0.0
  0
LINE
  5
F1E
330
A
100
AcDbEntity
  8
一般
  6
Continuous
 62
     7
100
AcDbLine
 10
440.903117449126
 20
473.7837325360971
 30
0.0
 11
406.903117449126
 21
473.7837325360971
 31
0.0
  0
LINE
  5
F1F
330
A
100
AcDbEntity
  8
一般
  6
Continuous
 62
     7
100
AcDbLine
 10
437.903117449126
 20
467.7837325360972
 30
0.0
 11
409.903117449126
 21
467.7837325360972
 31
0.0
  0
LINE
  5
F20
330
A
100
AcDbEntity
  8
一般
  6
Continuous
 62
     7
100
AcDbLine
 10
437.903117449126
 20
372.7837325360972
 30
0.0
 11
409.903117449126
 21
372.7837325360972
 31
0.0
  0
LINE
  5
F21
330
A
100
AcDbEntity
  8
一般
  6
Continuous
 62
     7
100
AcDbLine
 10
406.903117449126
 20
472.7837325360972
 30
0.0
 11
406.903117449126
 21
366.2837325360972
 31
0.0
  0
ARC
  5
F22
330
A
100
AcDbEntity
  8
一般
  6
Continuous
 62
     7
100
AcDbCircle
 10
408.903117449126
 20
366.2837325360972
 30
0.0
 40
2.0
100
AcDbArc
 50
180.0
 51
270.0
  0
ARC
  5
F23
330
A
100
AcDbEntity
  8
一般
  6
Continuous
 62
     7
100
AcDbCircle
 10
407.403117449126
 20
472.7837325360972
 30
0.0
 40
0.5
100
AcDbArc
 50
90.0
 51
180.0
  0
LINE
  5
F24
330
A
100
AcDbEntity
  8
一般
  6
Continuous
 62
     7
100
AcDbLine
 10
409.903117449126
 20
467.7837325360972
 30
0.0
 11
409.903117449126
 21
372.7837325360972
 31
0.0
  0
LINE
  5
F25
330
A
100
AcDbEntity
  8
一般
  6
Continuous
 62
     7
100
AcDbLine
 10
408.903117449126
 20
364.2837325360972
 30
0.0
 11
438.903117449126
 21
364.2837325360972
 31
0.0
  0
ARC
  5
F26
330
A
100
AcDbEntity
  8
一般
  6
Continuous
 62
     7
100
AcDbCircle
 10
438.903117449126
 20
366.2837325360972
 30
0.0
 40
2.0
100
AcDbArc
 50
270.0
 51
0.0
  0
LINE
  5
F27
330
A
100
AcDbEntity
  8
一般
  6
Continuous
 62
     7
100
AcDbLine
 10
408.403117449126
 20
363.7837325360972
 30
0.0
 11
439.403117449126
 21
363.7837325360972
 31
0.0
  0
ARC
  5
F28
330
A
100
AcDbEntity
  8
一般
  6
Continuous
 62
     7
100
AcDbCircle
 10
439.403117449126
 20
365.7837325360972
 30
0.0
 40
2.0
100
AcDbArc
 50
270.0
 51
0.0
  0
LINE
  5
F29
330
A
100
AcDbEntity
  8
一般
  6
Continuous
 62
     7
100
AcDbLine
 10
440.903117449126
 20
366.2837325360972
 30
0.0
 11
440.903117449126
 21
472.7837325360972
 31
0.0
  0
ARC
  5
F2A
330
A
100
AcDbEntity
  8
一般
  6
Continuous
 62
     7
100
AcDbCircle
 10
440.403117449126
 20
472.7837325360972
 30
0.0
 40
0.5
100
AcDbArc
 50
0.0
 51
90.0
  0
LINE
  5
F2B
330
A
100
AcDbEntity
  8
一般
  6
Continuous
 62
     7
100
AcDbLine
 10
437.903117449126
 20
372.7837325360972
 30
0.0
 11
437.903117449126
 21
467.7837325360972
 31
0.0
  0
LWPOLYLINE
  5
F2C
330
A
100
AcDbEntity
  8
一般
  6
Continuous
 62
     7
100
AcDbPolyline
 90
        4
 70
     1
 43
0.0
 10
428.9031174491261
 20
459.2837325360972
 10
428.9031174491261
 20
449.2837325360972
 10
418.903117449126
 20
449.2837325360972
 10
418.903117449126
 20
459.2837325360972
  0
LWPOLYLINE
  5
F2D
330
A
100
AcDbEntity
  8
一般
  6
Continuous
 62
     7
100
AcDbPolyline
 90
        4
 70
     1
 43
0.0
 10
428.9031174491261
 20
439.2837325360972
 10
428.9031174491261
 20
429.2837325360972
 10
418.903117449126
 20
429.2837325360972
 10
418.903117449126
 20
439.2837325360972
  0
LWPOLYLINE
  5
F2E
330
A
100
AcDbEntity
  8
一般
  6
Continuous
 62
     7
100
AcDbPolyline
 90
        4
 70
     1
 43
0.0
 10
428.9031174491261
 20
419.2837325360971
 10
428.9031174491261
 20
409.2837325360972
 10
418.903117449126
 20
409.2837325360972
 10
418.903117449126
 20
419.2837325360971
  0
CIRCLE
  5
F2F
330
A
100
AcDbEntity
  8
一般
  6
Continuous
 62
     7
100
AcDbCircle
 10
433.903117449126
 20
463.2837325360972
 30
0.0
 40
1.5
  0
LINE
  5
F30
330
A
100
AcDbEntity
  8
一般
  6
Continuous
 62
     7
100
AcDbLine
 10
477.1971317724306
 20
364.2837325360972
 30
0.0
 11
476.6971317724305
 21
364.2837325360972
 31
0.0
  0
LINE
  5
F31
330
A
100
AcDbEntity
  8
一般
  6
Continuous
 62
     7
100
AcDbLine
 10
486.4971317724305
 20
471.3883709959897
 30
0.0
 11
486.4971317724305
 21
366.1790940762047
 31
0.0
  0
ARC
  5
F32
330
A
100
AcDbEntity
  8
一般
  6
Continuous
 62
     7
100
AcDbCircle
 10
484.4971317724305
 20
471.3883709959897
 30
0.0
 40
2.0
100
AcDbArc
 50
0.0
 51
86.92254460057084
  0
LINE
  5
F33
330
A
100
AcDbEntity
  8
一般
  6
Continuous
 62
     7
100
AcDbLine
 10
477.1971317724306
 20
364.2837325360972
 30
0.0
 11
476.6971317724305
 21
364.2837325360972
 31
0.0
  0
LINE
  5
F34
330
A
100
AcDbEntity
  8
一般
  6
Continuous
 62
     7
100
AcDbLine
 10
468.1971317724305
 20
364.7551850762715
 30
0.0
 11
468.1971317724305
 21
472.8122799959229
 31
0.0
  0
ARC
  5
F35
330
A
100
AcDbEntity
  8
一般
  6
Continuous
 62
     7
100
AcDbCircle
 10
468.6971317724306
 20
472.8122799959229
 30
0.0
 40
0.5
100
AcDbArc
 50
93.36646066343455
 51
180.0
  0
LINE
  5
F36
330
A
100
AcDbEntity
  8
一般
  6
Continuous
 62
     7
100
AcDbLine
 10
476.6971317724305
 20
363.7837325360972
 30
0.0
 11
476.6971317724305
 21
473.7837325360971
 31
0.0
  0
LINE
  5
F37
330
A
100
AcDbEntity
  8
一般
  6
Continuous
 62
     7
100
AcDbLine
 10
474.1971317724305
 20
366.7837325360972
 30
0.0
 11
474.1971317724305
 21
368.7837325360972
 31
0.0
  0
LINE
  5
F38
330
A
100
AcDbEntity
  8
一般
  6
Continuous
 62
     7
100
AcDbLine
 10
477.1971317724306
 20
363.7837325360972
 30
0.0
 11
477.1971317724306
 21
473.7837325360971
 31
0.0
  0
LINE
  5
F39
330
A
100
AcDbEntity
  8
一般
  6
Continuous
 62
     7
100
AcDbLine
 10
468.6677707614548
 20
473.3114171825103
 30
0.0
 11
476.6971317724305
 21
473.7837325360971
 31
0.0
  0
LINE
  5
F3A
330
A
100
AcDbEntity
  8
一般
  6
Continuous
 62
     7
100
AcDbLine
 10
477.1971317724306
 20
473.7837325360971
 30
0.0
 11
480.7508176795179
 21
473.5926741539957
 31
0.0
  0
LINE
  5
F3B
330
A
100
AcDbEntity
  8
一般
  6
Continuous
 62
     7
100
AcDbLine
 10
476.6971317724305
 20
473.2837325360971
 30
0.0
 11
477.1971317724306
 21
473.2837325360971
 31
0.0
  0
LINE
  5
F3C
330
A
100
AcDbEntity
  8
一般
  6
Continuous
 62
     7
100
AcDbLine
 10
468.6677707614548
 20
364.256047889684
 30
0.0
 11
476.6971317724305
 21
363.7837325360972
 31
0.0
  0
ARC
  5
F3D
330
A
100
AcDbEntity
  8
一般
  6
Continuous
 62
     7
100
AcDbCircle
 10
468.6971317724306
 20
364.7551850762715
 30
0.0
 40
0.5
100
AcDbArc
 50
180.0
 51
266.6335393365654
  0
LINE
  5
F3E
330
A
100
AcDbEntity
  8
一般
  6
Continuous
 62
     7
100
AcDbLine
 10
477.1971317724306
 20
363.7837325360972
 30
0.0
 11
480.7508176795179
 21
363.9747909181987
 31
0.0
  0
ARC
  5
F3F
330
A
100
AcDbEntity
  8
一般
  6
Continuous
 62
     7
100
AcDbCircle
 10
484.4971317724305
 20
366.1790940762047
 30
0.0
 40
2.0
100
AcDbArc
 50
273.0774553994292
 51
0.0
  0
LINE
  5
F40
330
A
100
AcDbEntity
  8
一般
  6
Continuous
 62
     7
100
AcDbLine
 10
481.6971317724306
 20
364.9733487900219
 30
0.0
 11
481.6971317724306
 21
472.5941162821724
 31
0.0
  0
ARC
  5
F41
330
A
100
AcDbEntity
  8
一般
  6
Continuous
 62
     7
100
AcDbCircle
 10
480.6971317724305
 20
364.9733487900219
 30
0.0
 40
1.0
100
AcDbArc
 50
273.0774553994292
 51
0.0
  0
ARC
  5
F42
330
A
100
AcDbEntity
  8
一般
  6
Continuous
 62
     7
100
AcDbCircle
 10
480.6971317724305
 20
472.5941162821724
 30
0.0
 40
1.0
100
AcDbArc
 50
0.0
 51
86.92254460057084
  0
LINE
  5
F43
330
A
100
AcDbEntity
  8
一般
  6
Continuous
 62
     7
100
AcDbLine
 10
466.6971317724305
 20
439.2837325360972
 30
0.0
 11
466.6971317724305
 21
429.2837325360972
 31
0.0
  0
LINE
  5
F44
330
A
100
AcDbEntity
  8
一般
  6
Continuous
 62
     7
100
AcDbLine
 10
466.6971317724305
 20
419.2837325360971
 30
0.0
 11
466.6971317724305
 21
409.2837325360972
 31
0.0
  0
LINE
  5
F45
330
A
100
AcDbEntity
  8
一般
  6
Continuous
 62
     7
100
AcDbLine
 10
468.1971317724305
 20
459.2837325360972
 30
0.0
 11
466.6971317724305
 21
459.2837325360972
 31
0.0
  0
LINE
  5
F46
330
A
100
AcDbEntity
  8
一般
  6
Continuous
 62
     7
100
AcDbLine
 10
468.1971317724305
 20
449.2837325360972
 30
0.0
 11
466.6971317724305
 21
449.2837325360972
 31
0.0
  0
LINE
  5
F47
330
A
100
AcDbEntity
  8
一般
  6
Continuous
 62
     7
100
AcDbLine
 10
468.1971317724305
 20
439.2837325360972
 30
0.0
 11
466.6971317724305
 21
439.2837325360972
 31
0.0
  0
LINE
  5
F48
330
A
100
AcDbEntity
  8
一般
  6
Continuous
 62
     7
100
AcDbLine
 10
468.1971317724305
 20
429.2837325360972
 30
0.0
 11
466.6971317724305
 21
429.2837325360972
 31
0.0
  0
LINE
  5
F49
330
A
100
AcDbEntity
  8
一般
  6
Continuous
 62
     7
100
AcDbLine
 10
468.1971317724305
 20
419.2837325360971
 30
0.0
 11
466.6971317724305
 21
419.2837325360971
 31
0.0
  0
LINE
  5
F4A
330
A
100
AcDbEntity
  8
一般
  6
Continuous
 62
     7
100
AcDbLine
 10
468.1971317724305
 20
409.2837325360972
 30
0.0
 11
466.6971317724305
 21
409.2837325360972
 31
0.0
  0
LINE
  5
F4B
330
A
100
AcDbEntity
  8
一般
  6
Continuous
 62
     7
100
AcDbLine
 10
466.6971317724305
 20
459.2837325360972
 30
0.0
 11
466.6971317724305
 21
449.2837325360972
 31
0.0
  0
LINE
  5
F4C
330
A
100
AcDbEntity
  8
一般
  6
Continuous
 62
     7
100
AcDbLine
 10
406.403117449126
 20
365.7837325360972
 30
0.0
 11
406.403117449126
 21
473.2837325360971
 31
0.0
  0
ARC
  5
F4D
330
A
100
AcDbEntity
  8
一般
  6
Continuous
 62
     7
100
AcDbCircle
 10
408.403117449126
 20
365.7837325360972
 30
0.0
 40
2.0
100
AcDbArc
 50
180.0
 51
270.0
  0
ARC
  5
F4E
330
A
100
AcDbEntity
  8
一般
  6
Continuous
 62
     7
100
AcDbCircle
 10
406.903117449126
 20
473.2837325360971
 30
0.0
 40
0.5
100
AcDbArc
 50
90.0
 51
180.0
  0
LINE
  5
F4F
330
A
100
AcDbEntity
  8
一般
  6
Continuous
 62
     7
100
AcDbLine
 10
441.4031174491261
 20
365.7837325360972
 30
0.0
 11
441.4031174491261
 21
473.2837325360971
 31
0.0
  0
ARC
  5
F50
330
A
100
AcDbEntity
  8
一般
  6
Continuous
 62
     7
100
AcDbCircle
 10
440.903117449126
 20
473.2837325360971
 30
0.0
 40
0.5
100
AcDbArc
 50
0.0
 51
90.0
  0
LINE
  5
F51
330
A
100
AcDbEntity
  8
一般
  6
Continuous
 62
     7
100
AcDbLine
 10
412.403117449126
 20
452.1186825360971
 30
0.0
 11
414.903117449126
 21
456.4488095550194
 31
0.0
  0
LINE
  5
F52
330
A
100
AcDbEntity
  8
一般
  6
Continuous
 62
     7
100
AcDbLine
 10
417.403117449126
 20
452.1186825360971
 30
0.0
 11
414.903117449126
 21
456.4488095550194
 31
0.0
  0
LINE
  5
F53
330
A
100
AcDbEntity
  8
一般
  6
Continuous
 62
     7
100
AcDbLine
 10
412.403117449126
 20
452.1186825360971
 30
0.0
 11
417.403117449126
 21
452.1186825360971
 31
0.0
  0
LINE
  5
F54
330
A
100
AcDbEntity
  8
一般
  6
Continuous
 62
     7
100
AcDbLine
 10
412.403117449126
 20
416.4487825360971
 30
0.0
 11
414.903117449126
 21
412.118655517175
 31
0.0
  0
LINE
  5
F55
330
A
100
AcDbEntity
  8
一般
  6
Continuous
 62
     7
100
AcDbLine
 10
417.403117449126
 20
416.4487825360971
 30
0.0
 11
414.903117449126
 21
412.118655517175
 31
0.0
  0
LINE
  5
F56
330
A
100
AcDbEntity
  8
一般
  6
Continuous
 62
     7
100
AcDbLine
 10
412.403117449126
 20
416.4487825360971
 30
0.0
 11
417.403117449126
 21
416.4487825360971
 31
0.0
  0
LINE
  5
F57
330
A
100
AcDbEntity
  8
一般
  6
Continuous
 62
     7
100
AcDbLine
 10
480.7508176795179
 20
473.5926741539957
 30
0.0
 11
484.6045035866049
 21
473.3854867396362
 31
0.0
  0
LINE
  5
F58
330
A
100
AcDbEntity
  8
一般
  6
Continuous
 62
     7
100
AcDbLine
 10
480.7508176795179
 20
363.9747909181987
 30
0.0
 11
484.6045035866049
 21
364.1819783325582
 31
0.0
  0
LINE
  5
F59
330
A
100
AcDbEntity
  8
一般
  6
Continuous
 62
     7
100
AcDbLine
 10
476.6971317724305
 20
366.7837325360972
 30
0.0
 11
474.1971317724305
 21
366.7837325360972
 31
0.0
  0
LINE
  5
F5A
330
A
100
AcDbEntity
  8
一般
  6
Continuous
 62
     7
100
AcDbLine
 10
476.6971317724305
 20
368.7837325360972
 30
0.0
 11
474.1971317724305
 21
368.7837325360972
 31
0.0
  0
TEXT
  5
F93
330
A
100
AcDbEntity
  8
文字
 62
     7
100
AcDbText
 10
411.9906166430821
 20
432.3308480892237
 30
0.0
 40
2.0
  1
STOP
 41
0.8181818181818181
 72
     5
 11
417.9906166430821
 21
432.3308480892237
 31
0.0
100
AcDbText
  0
DIMENSION
  5
F96
330
A
100
AcDbEntity
  8
寸法
  6
Continuous
 62
     6
100
AcDbDimension
  2
*D5
 10
389.0365883047807
 20
363.7837325360972
 30
0.0
 11
386.4115883047806
 21
418.7837325360972
 31
0.0
 70
    32
 71
     5
 42
110.0
  3
外観図
100
AcDbAlignedDimension
 13
406.903117449126
 23
473.7837325360971
 33
0.0
 14
408.403117449126
 24
363.7837325360972
 34
0.0
 50
90.0
100
AcDbRotatedDimension
  0
DIMENSION
  5
FA3
330
A
100
AcDbEntity
  8
寸法
  6
Continuous
 62
     6
100
AcDbDimension
  2
*D6
 10
441.4031174491261
 20
349.7020828718179
 30
0.0
 11
423.903117449126
 21
352.3270828718179
 31
0.0
 70
    32
 71
     5
 42
35.0
  3
外観図
100
AcDbAlignedDimension
 13
406.403117449126
 23
365.7837325360972
 33
0.0
 14
441.4031174491261
 24
365.7837325360972
 34
0.0
100
AcDbRotatedDimension
  0
DIMENSION
  5
FB0
330
A
100
AcDbEntity
  8
寸法
  6
Continuous
 62
     6
100
AcDbDimension
  2
*D7
 10
486.4971317724305
 20
349.7020828718179
 30
0.0
 11
477.3471317724305
 21
352.6604162051512
 31
0.0
 70
    32
 71
     5
 42
18.29999999999995
  3
外観図
100
AcDbAlignedDimension
 13
468.1971317724305
 23
364.7551850762715
 33
0.0
 14
486.4971317724305
 24
366.1790940762047
 34
0.0
100
AcDbRotatedDimension
  0
LINE
  5
1009
330
A
100
AcDbEntity
  8
文字
  6
Continuous
 62
     7
100
AcDbLine
 10
442.9078443928606
 20
309.299225408419
 30
0.0
 11
460.4168351277872
 21
309.299225408419
 31
0.0
  0
LINE
  5
100A
330
A
100
AcDbEntity
  8
文字
  6
Continuous
 62
     7
100
AcDbLine
 10
460.4168351277872
 20
309.299225408419
 30
0.0
 11
460.4168351277872
 21
301.8416779805931
 31
0.0
  0
LINE
  5
100B
330
A
100
AcDbEntity
  8
文字
  6
Continuous
 62
     7
100
AcDbLine
 10
460.4168351277872
 20
301.8416779805931
 30
0.0
 11
442.9078443928606
 21
301.8416779805931
 31
0.0
  0
LINE
  5
100C
330
A
100
AcDbEntity
  8
文字
  6
Continuous
 62
     7
100
AcDbLine
 10
442.9078443928606
 20
301.8416779805931
 30
0.0
 11
442.9078443928606
 21
309.299225408419
 31
0.0
  0
LINE
  5
100D
330
A
100
AcDbEntity
  8
文字
  6
Continuous
 62
     7
100
AcDbLine
 10
591.6530724604037
 20
308.6354202979218
 30
0.0
 11
609.1620631953303
 21
308.6354202979218
 31
0.0
  0
LINE
  5
100E
330
A
100
AcDbEntity
  8
文字
  6
Continuous
 62
     7
100
AcDbLine
 10
609.1620631953303
 20
308.6354202979218
 30
0.0
 11
609.1620631953303
 21
301.177872870096
 31
0.0
  0
LINE
  5
100F
330
A
100
AcDbEntity
  8
文字
  6
Continuous
 62
     7
100
AcDbLine
 10
609.1620631953303
 20
301.177872870096
 30
0.0
 11
591.6530724604037
 21
301.177872870096
 31
0.0
  0
LINE
  5
1010
330
A
100
AcDbEntity
  8
文字
  6
Continuous
 62
     7
100
AcDbLine
 10
591.6530724604037
 20
301.177872870096
 30
0.0
 11
591.6530724604037
 21
308.6354202979218
 31
0.0
  0
TEXT
  5
1011
330
A
100
AcDbEntity
  8
文字
 62
     7
100
AcDbText
 10
444.7021354210502
 20
303.570451694506
 30
0.0
 40
4.0
  1
送信機
 41
0.8999999999999998
 72
     5
 11
456.7021354210502
 21
303.570451694506
 31
0.0
100
AcDbText
  0
TEXT
  5
1012
330
A
100
AcDbEntity
  8
文字
 62
     7
100
AcDbText
 10
593.4473634885935
 20
302.9066465840089
 30
0.0
 40
4.0
  1
受光部
 41
0.9
 72
     5
 11
605.4473634885935
 21
302.9066465840089
 31
0.0
100
AcDbText
  0
MULTILEADER
  5
102B
330
A
100
AcDbEntity
  8
文字
 92
      288
310
20010000030000008C0000000A000000E1188AA930667F40AE67FAA60D497540000000000000000000000000000000000000000000000000000000000000F03F000000000000F03F000000000000000000000000000000000000000000000000000000000000F03F0000000000000000416344624D4C656164657220284143
310
44425F4D4C45414445525F434C4153532900000000840000000600000005000000E1188AA930667F40AE67FAA60D49754000000000000000002C9872FA02EC8040AE67FAA60D49754000000000000000002C9872FA02EC8040940CD590421C76400000000000000000E1188AA930667F40940CD590421C7640000000000000
310
0000E1188AA930667F40AE67FAA60D49754000000000000000000800000015000000
100
AcDbMLeader
300
CONTEXT_DATA{
 40
1.0
 10
502.3868804354115
 20
342.9658330708928
 30
0.0
 41
4.0
140
4.0
145
2.0
174
     1
175
     6
176
     2
177
     0
290
     1
304
M3ネジ
 11
0.0
 21
0.0
 31
1.0
340
17
 12
520.9202137687449
 22
345.3658330708928
 32
0.0
 13
1.0
 23
0.0
 33
0.0
 42
0.0
 43
0.0
 44
0.0
 45
1.0
170
     1
 90
-1073741824
171
     3
172
     5
 91
-1073741824
141
0.0
 92
        0
291
     0
292
     0
173
     0
293
     0
142
0.0
143
0.0
294
     0
295
     0
296
     0
110
541.5014542534532
120
353.7662514040214
130
0.0
111
1.0
121
0.0
131
0.0
112
0.0
122
1.0
132
0.0
297
     0
302
LEADER{
290
     1
291
     1
 10
523.2802137687449
 20
340.5658330708928
 30
0.0
 11
-1.0
 21
0.0
 31
0.0
 90
        0
 40
0.3599999999999989
304
LEADER_LINE{
 10
541.5014542534532
 20
353.7662514040214
 30
0.0
 91
        0
305
}
303
}
301
}
340
40D
 90
   345472
170
     1
 91
-1056964608
341
11
171
    -2
290
     1
291
     1
 41
0.36
342
102C
 42
4.0
172
     2
343
17
173
     1
 95
        6
174
     1
175
     2
 92
-1056964608
292
     0
 93
-1056964608
 10
1.0
 20
1.0
 30
1.0
 43
0.0
176
     0
293
     0
294
     0
178
     0
179
     3
 45
1.0
1001
ACAD_MLEADERVER
1070
     2
  0
MULTILEADER
  5
102F
330
A
100
AcDbEntity
  8
文字
 92
      288
310
20010000030000008C0000000A000000A6EA00257E1680407CF8A7D3CE3D7440000000000000000000000000000000000000000000000000000000000000F03F000000000000F03F000000000000000000000000000000000000000000000000000000000000F03F0000000000000000416344624D4C656164657220284143
310
44425F4D4C45414445525F434C4153532900000000840000000600000005000000A6EA00257E1680407CF8A7D3CE3D74400000000000000000D1F8D36FD22D81407CF8A7D3CE3D74400000000000000000D1F8D36FD22D81408ED7A241F85E75400000000000000000A6EA00257E1680408ED7A241F85E7540000000000000
310
0000A6EA00257E1680407CF8A7D3CE3D744000000000000000000800000015000000
100
AcDbMLeader
300
CONTEXT_DATA{
 40
1.0
 10
514.8115940162285
 20
326.2629948197702
 30
0.0
 41
4.0
140
4.0
145
2.0
174
     1
175
     6
176
     2
177
     0
290
     1
304
取付金具
 11
0.0
 21
0.0
 31
1.0
340
17
 12
534.9449273495618
 22
328.6629948197701
 32
0.0
 13
1.0
 23
0.0
 33
0.0
 42
0.0
 43
0.0
 44
0.0
 45
1.0
170
     1
 90
-1073741824
171
     3
172
     5
 91
-1073741824
141
0.0
 92
        0
291
     0
292
     0
173
     0
293
     0
142
0.0
143
0.0
294
     0
295
     0
296
     0
110
549.7277523575122
120
341.9356094704643
130
0.0
111
1.0
121
0.0
131
0.0
112
0.0
122
1.0
132
0.0
297
     0
302
LEADER{
290
     1
291
     1
 10
537.3049273495619
 20
323.8629948197702
 30
0.0
 11
-1.0
 21
0.0
 31
0.0
 90
        0
 40
0.3599999999999989
304
LEADER_LINE{
 10
549.7277523575122
 20
341.9356094704643
 30
0.0
 91
        0
305
}
303
}
301
}
340
40D
 90
   345472
170
     1
 91
-1056964608
341
11
171
    -2
290
     1
291
     1
 41
0.36
342
102C
 42
4.0
172
     2
343
17
173
     1
 95
        6
174
     1
175
     2
 92
-1056964608
292
     0
 93
-1056964608
 10
1.0
 20
1.0
 30
1.0
 43
0.0
176
     0
293
     0
294
     0
178
     0
179
     3
 45
1.0
1001
ACAD_MLEADERVER
1070
     2
  0
MULTILEADER
  5
1030
330
A
100
AcDbEntity
  8
文字
 92
      288
310
20010000030000008C0000000A00000091AB4A80DC758340AAE70D99A78A7640000000000000000000000000000000000000000000000000000000000000F03F000000000000F03F000000000000000000000000000000000000000000000000000000000000F03F0000000000000000416344624D4C656164657220284143
310
44425F4D4C45414445525F434C415353290000000084000000060000000500000091AB4A80DC758340AAE70D99A78A764000000000000000003D458D9D656C8540AAE70D99A78A764000000000000000003D458D9D656C8540E22837D62E117740000000000000000091AB4A80DC758340E22837D62E117740000000000000
310
000091AB4A80DC758340AAE70D99A78A764000000000000000000800000015000000
100
AcDbMLeader
300
CONTEXT_DATA{
 40
1.0
 10
640.4829502458656
 20
360.6659174483453
 30
0.0
 41
4.0
140
4.0
145
2.0
174
     6
175
     6
176
     0
177
     0
290
     1
304
メンテナンスボタン
 11
0.0
 21
0.0
 31
1.0
340
17
 12
642.4829502458655
 22
365.4659174483454
 32
0.0
 13
1.0
 23
0.0
 33
0.0
 42
0.0
 43
0.0
 44
0.0
 45
1.0
170
     1
 90
-1073741824
171
     1
172
     5
 91
-1073741824
141
0.0
 92
        0
291
     0
292
     0
173
     0
293
     0
142
0.0
143
0.0
294
     0
295
     0
296
     0
110
707.9919720984008
120
394.816301384313
130
0.0
111
1.0
121
0.0
131
0.0
112
0.0
122
1.0
132
0.0
297
     0
302
LEADER{
290
     1
291
     1
 10
640.1229502458655
 20
360.6659174483453
 30
0.0
 11
1.0
 21
0.0
 31
0.0
 90
        1
 40
0.3599999999999989
304
LEADER_LINE{
 10
622.7326665719612
 20
369.0739347605396
 30
0.0
 91
        0
305
}
303
}
301
}
340
40D
 90
   349568
170
     1
 91
-1056964608
341
11
171
    -2
290
     1
291
     1
 41
0.36
342
102C
 42
4.0
172
     2
343
17
173
     6
 95
        6
174
     1
175
     2
 92
-1056964608
292
     0
 93
-1056964608
 10
1.0
 20
1.0
 30
1.0
 43
0.0
176
     0
293
     0
294
     0
178
     0
179
     3
 45
1.0
1001
ACAD_MLEADERVER
1070
     2
  0
LINE
  5
1031
330
A
100
AcDbEntity
  8
一般
  6
Continuous
 62
     7
100
AcDbLine
 10
569.5074095300847
 20
440.5482539684824
 30
0.0
 11
569.5074095300847
 21
374.0739347605373
 31
0.0
  0
LINE
  5
1032
330
A
100
AcDbEntity
  8
一般
  6
Continuous
 62
     7
100
AcDbLine
 10
574.5074095300847
 20
440.5985591860423
 30
0.0
 11
574.5074095300847
 21
506.5739347605373
 31
0.0
  0
LINE
  5
1033
330
A
100
AcDbEntity
  8
一般
  6
Continuous
 62
     7
100
AcDbLine
 10
629.3326665719635
 20
441.2979838833731
 30
0.0
 11
629.3326665719635
 21
506.5739347605373
 31
0.0
  0
LINE
  5
1034
330
A
100
AcDbEntity
  8
一般
  6
Continuous
 62
     7
100
AcDbLine
 10
631.7326665719634
 20
440.3245041273794
 30
0.0
 11
631.7326665719634
 21
506.5739347605373
 31
0.0
  0
LINE
  5
10A7
330
A
100
AcDbEntity
  8
文字
  6
Continuous
 62
     7
100
AcDbLine
 10
663.6164724370469
 20
388.1367968940514
 30
0.0
 11
760.3664724370469
 21
388.1367968940514
 31
0.0
  0
TEXT
  5
10A8
330
A
100
AcDbEntity
  8
文字
 62
     7
100
AcDbText
 10
664.9772396890536
 20
388.8867968940514
 30
0.0
 40
3.0
  1
チャンネル切り替え機能
 41
0.8411427335317085
 72
     5
 11
697.6135777500839
 21
388.8867968940514
 31
0.0
100
AcDbText
  0
LINE
  5
10AA
330
A
100
AcDbEntity
  8
文字
  6
Continuous
 62
     7
100
AcDbLine
 10
663.6164724370469
 20
383.6367968940514
 30
0.0
 11
760.3664724370469
 21
383.6367968940514
 31
0.0
  0
LINE
  5
10AB
330
A
100
AcDbEntity
  8
文字
  6
Continuous
 62
     7
100
AcDbLine
 10
663.6164724370469
 20
379.1367968940514
 30
0.0
 11
760.3664724370469
 21
379.1367968940514
 31
0.0
  0
LINE
  5
10AC
330
A
100
AcDbEntity
  8
0
  6
Continuous
100
AcDbLine
 10
703.9914724370468
 20
388.1367968940514
 30
0.0
 11
703.9914724370468
 21
379.1367968940514
 31
0.0
  0
TEXT
  5
10AD
330
A
100
AcDbEntity
  8
文字
 62
     7
100
AcDbText
 10
704.9914724370469
 20
384.3867968940514
 30
0.0
 40
3.0
  1
3チャンネル切り替え可能
 41
0.7894736842105261
 72
     5
 11
737.9914724370469
 21
384.3867968940514
 31
0.0
100
AcDbText
  0
TEXT
  5
10AF
330
A
100
AcDbEntity
  8
文字
 62
     7
100
AcDbText
 10
665.1164724370469
 20
379.8867968940514
 30
0.0
 40
3.0
  1
工場出荷時
 41
0.8720930232558139
 72
     5
 11
680.1164724370469
 21
379.8867968940514
 31
0.0
100
AcDbText
  0
TEXT
  5
10B0
330
A
100
AcDbEntity
  8
文字
 62
     7
100
AcDbText
 10
704.9914724370469
 20
379.8867968940514
 30
0.0
 40
3.0
  1
1chに設定
 41
0.786600400054656
 72
     5
 11
719.1502796380307
 21
379.8867968940514
 31
0.0
100
AcDbText
  0
ENDSEC
  0
SECTION
  2
OBJECTS
  0
DICTIONARY
  5
19
330
0
100
AcDbDictionary
281
     1
  3
ACAD_COLOR
350
3E7
  3
ACAD_GROUP
350
1A
  3
ACAD_LAYOUT
350
40E
  3
ACAD_MATERIAL
350
3BA
  3
ACAD_MLEADERSTYLE
350
40C
  3
ACAD_MLINESTYLE
350
1B
  3
ACAD_PLOTSETTINGS
350
40F
  3
ACAD_PLOTSTYLENAME
350
3B8
  3
ACAD_SCALELIST
350
3EA
  3
ACAD_TABLESTYLE
350
3E8
  3
ACAD_VISUALSTYLE
350
3D3
  3
ACDB_RECOMPOSE_DATA
350
10C6
  3
AcDbVariableDictionary
350
466
  3
DWGPROPS
350
10C7
  0
DICTIONARY
  5
435
330
7
100
AcDbDictionary
280
     1
281
     1
  0
DICTIONARY
  5
7EA
330
2
100
AcDbDictionary
280
     1
281
     1
  3
ACAD_LAYERSTATES
360
7EB
  0
DICTIONARY
  5
413
330
14
100
AcDbDictionary
280
     1
281
     1
  3
ADSK_XREC_LAYER_RECONCILED
360
414
  0
DICTIONARY
  5
415
330
34
100
AcDbDictionary
280
     1
281
     1
  3
ADSK_XREC_LAYER_RECONCILED
360
416
  0
DICTIONARY
  5
417
330
35
100
AcDbDictionary
280
     1
281
     1
  3
ADSK_XREC_LAYER_RECONCILED
360
418
  0
DICTIONARY
  5
419
330
36
100
AcDbDictionary
280
     1
281
     1
  3
ADSK_XREC_LAYER_RECONCILED
360
41A
  0
DICTIONARY
  5
41D
330
38
100
AcDbDictionary
280
     1
281
     1
  3
ADSK_XREC_LAYER_RECONCILED
360
41E
  0
DICTIONARY
  5
DAA
330
A
100
AcDbDictionary
280
     1
281
     1
  3
ACAD_SORTENTS
360
DAB
  0
DICTIONARY
  5
D53
330
D48
100
AcDbDictionary
280
     1
281
     1
  3
ACAD_SORTENTS
360
D54
  0
DICTIONARY
  5
3E7
102
{ACAD_REACTORS
330
19
102
}
330
19
100
AcDbDictionary
281
     1
  0
DICTIONARY
  5
1A
102
{ACAD_REACTORS
330
19
102
}
330
19
100
AcDbDictionary
281
     1
  0
DICTIONARY
  5
40E
102
{ACAD_REACTORS
330
19
102
}
330
19
100
AcDbDictionary
281
     1
  3
Model
350
410
  3
レイアウト1
350
411
  0
DICTIONARY
  5
3BA
102
{ACAD_REACTORS
330
19
102
}
330
19
100
AcDbDictionary
281
     1
  3
ByBlock
350
3C3
  3
ByLayer
350
3BB
  3
Global
350
3CB
  0
DICTIONARY
  5
40C
102
{ACAD_REACTORS
330
19
102
}
330
19
100
AcDbDictionary
281
     1
  3
Standard
350
40D
  0
DICTIONARY
  5
1B
102
{ACAD_REACTORS
330
19
102
}
330
19
100
AcDbDictionary
281
     1
  3
STANDARD
350
1C
  0
DICTIONARY
  5
40F
102
{ACAD_REACTORS
330
19
102
}
330
19
100
AcDbDictionary
281
     1
  0
ACDBDICTIONARYWDFLT
  5
3B8
102
{ACAD_REACTORS
330
19
102
}
330
19
100
AcDbDictionary
281
     1
  3
Normal
350
3B9
100
AcDbDictionaryWithDefault
340
3B9
  0
DICTIONARY
  5
3EA
102
{ACAD_REACTORS
330
19
102
}
330
19
100
AcDbDictionary
281
     1
  3
A0
350
3EB
  3
A1
350
3EC
  3
A2
350
3ED
  3
A3
350
3EE
  3
A4
350
3EF
  3
A5
350
3F0
  3
A6
350
3F1
  3
A7
350
3F2
  3
A8
350
3F3
  3
A9
350
3F4
  3
B0
350
3F5
  3
B1
350
3F6
  3
B2
350
3F7
  3
B3
350
3F8
  3
B4
350
3F9
  3
B5
350
3FA
  3
B6
350
3FB
  3
B7
350
3FC
  3
B8
350
3FD
  3
B9
350
3FE
  3
C0
350
3FF
  3
C1
350
400
  3
C2
350
401
  3
C3
350
402
  3
C4
350
403
  3
C5
350
404
  3
C6
350
405
  3
C7
350
406
  3
C8
350
407
  3
C9
350
408
  3
D0
350
409
  3
D1
350
40A
  3
D2
350
40B
  0
DICTIONARY
  5
3E8
102
{ACAD_REACTORS
330
19
102
}
330
19
100
AcDbDictionary
281
     1
  3
Standard
350
3E9
  0
DICTIONARY
  5
3D3
102
{ACAD_REACTORS
330
19
102
}
330
19
100
AcDbDictionary
281
     1
  3
2dWireframe
350
3D9
  3
3D Hidden
350
3DB
  3
3dWireframe
350
3DA
  3
Basic
350
3D8
  3
Brighten
350
3DF
  3
ColorChange
350
3E3
  3
Conceptual
350
3DC
  3
Dim
350
3DE
  3
EdgeColorOff
350
3E6
  3
Facepattern
350
3E2
  3
Flat
350
3D4
  3
FlatWithEdges
350
3D5
  3
Gouraud
350
3D6
  3
GouraudWithEdges
350
3D7
  3
JitterOff
350
3E4
  3
Linepattern
350
3E1
  3
OverhangOff
350
3E5
  3
Realistic
350
3DD
  3
Thicken
350
3E0
  0
XRECORD
  5
10C6
102
{ACAD_REACTORS
330
19
102
}
330
19
100
AcDbXrecord
280
     1
 90
        1
330
3E9
  0
DICTIONARY
  5
466
102
{ACAD_REACTORS
330
19
102
}
330
19
100
AcDbDictionary
281
     1
  3
CANNOSCALE
350
469
  3
CMLEADERSTYLE
350
468
  3
CTABLESTYLE
350
467
  3
DIMASSOC
350
46C
  3
INDEXCTL
350
46B
  3
LAYEREVAL
350
10A0
  3
LAYERNOTIFY
350
10A1
  3
LIGHTINGUNITS
350
109F
  3
MSLTSCALE
350
109E
  3
SORTENTS
350
46A
  3
XCLIPFRAME
350
10C4
  0
XRECORD
  5
10C7
102
{ACAD_REACTORS
330
19
102
}
330
19
100
AcDbXrecord
280
     1
  1
DWGPROPS COOKIE
  2

  3

  4

  6

  7

  8
User
  9

300
=
301
=
302
=
303
=
304
=
305
=
306
=
307
=
308
=
309
=
 40
0.1004410648148148
 41
2305814.41479463
 42
2460080.455025231
  1

 90
        0
  0
DICTIONARY
  5
7EB
102
{ACAD_REACTORS
330
7EA
102
}
330
7EA
100
AcDbDictionary
281
     1
  0
XRECORD
  5
414
102
{ACAD_REACTORS
330
413
102
}
330
413
100
AcDbXrecord
280
     1
290
     1
  0
XRECORD
  5
416
102
{ACAD_REACTORS
330
415
102
}
330
415
100
AcDbXrecord
280
     1
290
     1
  0
XRECORD
  5
418
102
{ACAD_REACTORS
330
417
102
}
330
417
100
AcDbXrecord
280
     1
290
     1
  0
XRECORD
  5
41A
102
{ACAD_REACTORS
330
419
102
}
330
419
100
AcDbXrecord
280
     1
290
     1
  0
XRECORD
  5
41E
102
{ACAD_REACTORS
330
41D
102
}
330
41D
100
AcDbXrecord
280
     1
290
     1
  0
SORTENTSTABLE
  5
DAB
102
{ACAD_REACTORS
330
DAA
102
}
330
DAA
100
AcDbSortentsTable
330
A
331
1034
  5
CED
331
CD9
  5
CD9
331
92A
  5
92A
331
F2E
  5
F32
331
8E3
  5
8E3
331
814
  5
814
331
F36
  5
F3A
331
932
  5
932
331
81C
  5
81C
331
F3E
  5
F42
331
2B0
  5
2B0
331
CE1
  5
CE2
331
8EB
  5
8EB
331
824
  5
824
331
2E7
  5
2E7
331
2B8
  5
2B8
331
93A
  5
93A
331
F46
  5
F4A
331
EB7
  5
EBB
331
DB0
  5
DB5
331
CE9
  5
CEC
331
942
  5
942
331
8F3
  5
8F3
331
82C
  5
82C
331
2C0
  5
2C0
331
2EF
  5
2EF
331
100D
  5
1011
331
F4E
  5
F52
331
DB8
  5
DC3
331
CF1
  5
D57
331
94A
  5
94A
331
EBF
  5
EC3
331
F56
  5
F5A
331
952
  5
952
331
884
  5
884
331
DC0
  5
DC5
331
F1F
  5
F23
331
2C8
  5
2C8
331
2D0
  5
2D0
331
DC8
  5
E87
331
95A
  5
95A
331
2D8
  5
2D8
331
91B
  5
91B
331
F27
  5
F2B
331
F96
  5
100A
331
923
  5
923
331
CDA
  5
CDA
331
92B
  5
92B
331
F2F
  5
F33
331
8E4
  5
8E4
331
815
  5
815
331
F37
  5
F3B
331
933
  5
933
331
81D
  5
81D
331
D71
  5
DB4
331
F3F
  5
F43
331
2E0
  5
2E0
331
2B1
  5
2B1
331
CE2
  5
CE4
331
93B
  5
93B
331
825
  5
825
331
2E8
  5
2E8
331
2B9
  5
2B9
331
8EC
  5
8EC
331
F47
  5
F4B
331
DB1
  5
DB6
331
CEA
  5
CEE
331
943
  5
943
331
8F4
  5
8F4
331
EB8
  5
EBC
331
2C1
  5
2C1
331
2F0
  5
2F0
331
100E
  5
1012
331
F4F
  5
F53
331
DB9
  5
DC4
331
CF2
  5
D71
331
94B
  5
94B
331
EC0
  5
EC4
331
F57
  5
F93
331
953
  5
953
331
914
  5
914
331
885
  5
885
331
DC1
  5
DC6
331
2C9
  5
2C9
331
2D1
  5
2D1
331
F20
  5
F24
331
DC9
  5
E96
331
95B
  5
95B
331
2D9
  5
2D9
331
91C
  5
91C
331
924
  5
924
331
F28
  5
F2C
331
E01
  5
EB6
331
CDB
  5
CDC
331
92C
  5
92C
331
F30
  5
F34
331
8E5
  5
8E5
331
816
  5
816
331
934
  5
934
331
F38
  5
F3C
331
2E1
  5
2E1
331
2B2
  5
2B2
331
F40
  5
F44
331
CE3
  5
CE5
331
93C
  5
93C
331
8ED
  5
8ED
331
2E9
  5
2E9
331
2BA
  5
2BA
331
826
  5
826
331
F48
  5
F4C
331
CEB
  5
CEF
331
944
  5
944
331
8F5
  5
8F5
331
EB9
  5
EBD
331
2C2
  5
2C2
331
2F1
  5
2F1
331
100F
  5
102B
331
F50
  5
F54
331
CF3
  5
DB0
331
94C
  5
94C
331
EC1
  5
EC5
331
F58
  5
F96
331
954
  5
954
331
915
  5
915
331
2CA
  5
2CA
331
2D2
  5
2D2
331
F21
  5
F25
331
95C
  5
95C
331
2DA
  5
2DA
331
91D
  5
91D
331
102F
  5
1033
331
925
  5
925
331
F29
  5
F2D
331
CDC
  5
CDD
331
92D
  5
92D
331
F31
  5
F35
331
8E6
  5
8E6
331
817
  5
817
331
935
  5
935
331
F39
  5
F3D
331
2E2
  5
2E2
331
2B3
  5
2B3
331
FB0
  5
100C
331
F41
  5
F45
331
CE4
  5
CE6
331
93D
  5
93D
331
8EE
  5
8EE
331
2EA
  5
2EA
331
2BB
  5
2BB
331
827
  5
827
331
F49
  5
F4D
331
DB3
  5
DB7
331
CEC
  5
CF0
331
945
  5
945
331
8F6
  5
8F6
331
EBA
  5
EBE
331
2C3
  5
2C3
331
2F2
  5
2F2
331
1010
  5
102F
331
F51
  5
F55
331
CF4
  5
DB1
331
94D
  5
94D
331
EC2
  5
EC6
331
F59
  5
FA3
331
955
  5
955
331
916
  5
916
331
DC3
  5
DC7
331
2CB
  5
2CB
331
2D3
  5
2D3
331
F22
  5
F26
331
95D
  5
95D
331
91E
  5
91E
331
2DB
  5
2DB
331
8A7
  5
8A7
331
1030
  5
1034
331
926
  5
926
331
F2A
  5
F2E
331
CDD
  5
CDE
331
92E
  5
92E
331
F32
  5
F36
331
8E7
  5
8E7
331
818
  5
818
331
936
  5
936
331
F3A
  5
F3E
331
2E3
  5
2E3
331
2B4
  5
2B4
331
F42
  5
F46
331
CE5
  5
CE7
331
93E
  5
93E
331
8EF
  5
8EF
331
2EB
  5
2EB
331
2BC
  5
2BC
331
828
  5
828
331
1009
  5
100D
331
F4A
  5
F4E
331
DB4
  5
DB8
331
CED
  5
CF1
331
946
  5
946
331
8F7
  5
8F7
331
EBB
  5
EBF
331
2C4
  5
2C4
331
2F3
  5
2F3
331
1011
  5
1030
331
F52
  5
F56
331
94E
  5
94E
331
EC3
  5
F1D
331
880
  5
880
331
F5A
  5
FB0
331
956
  5
956
331
917
  5
917
331
DC4
  5
DC8
331
2CC
  5
2CC
331
2D4
  5
2D4
331
F23
  5
F27
331
95E
  5
95E
331
91F
  5
91F
331
2DC
  5
2DC
331
8A8
  5
8A8
331
1031
  5
CE3
331
DF4
  5
EB5
331
927
  5
927
331
F2B
  5
F2F
331
811
  5
811
331
CDE
  5
CDF
331
92F
  5
92F
331
F33
  5
F37
331
819
  5
819
331
F3B
  5
F3F
331
937
  5
937
331
2AD
  5
2AD
331
8E8
  5
8E8
331
2E4
  5
2E4
331
2B5
  5
2B5
331
F43
  5
F47
331
CE6
  5
CE8
331
93F
  5
93F
331
8F0
  5
8F0
331
829
  5
829
331
2BD
  5
2BD
331
2EC
  5
2EC
331
100A
  5
100E
331
F4B
  5
F4F
331
DB5
  5
DB9
331
CEE
  5
CF2
331
947
  5
947
331
8F8
  5
8F8
331
EBC
  5
EC0
331
2C5
  5
2C5
331
2F4
  5
2F4
331
1012
  5
1031
331
F53
  5
F57
331
94F
  5
94F
331
EC4
  5
F1E
331
881
  5
881
331
957
  5
957
331
DC5
  5
DC9
331
2CD
  5
2CD
331
918
  5
918
331
2D5
  5
2D5
331
F24
  5
F28
331
F93
  5
1009
331
95F
  5
95F
331
920
  5
920
331
2DD
  5
2DD
331
8A9
  5
8A9
331
1032
  5
CDB
331
928
  5
928
331
F2C
  5
F30
331
8E1
  5
8E1
331
812
  5
812
331
FA3
  5
100B
331
CDF
  5
CE0
331
930
  5
930
331
F34
  5
F38
331
81A
  5
81A
331
F3C
  5
F40
331
2AE
  5
2AE
331
938
  5
938
331
8E9
  5
8E9
331
822
  5
822
331
2E5
  5
2E5
331
2B6
  5
2B6
331
F44
  5
F48
331
EB5
  5
EB9
331
CE7
  5
CE9
331
940
  5
940
331
8F1
  5
8F1
331
82A
  5
82A
331
2BE
  5
2BE
331
2ED
  5
2ED
331
100B
  5
100F
331
F4C
  5
F50
331
DB6
  5
DC0
331
CEF
  5
CF3
331
948
  5
948
331
8F9
  5
8F9
331
EBD
  5
EC1
331
2F5
  5
2F5
331
2C6
  5
2C6
331
F54
  5
F58
331
950
  5
950
331
EC5
  5
F1F
331
882
  5
882
331
F1D
  5
F21
331
DC6
  5
DF4
331
2CE
  5
2CE
331
958
  5
958
331
919
  5
919
331
2D6
  5
2D6
331
102B
  5
1032
331
F25
  5
F29
331
960
  5
960
331
921
  5
921
331
2DE
  5
2DE
331
8AA
  5
8AA
331
1033
  5
CEB
331
D57
  5
DB3
331
929
  5
929
331
F2D
  5
F31
331
8E2
  5
8E2
331
813
  5
813
331
931
  5
931
331
F35
  5
F39
331
81B
  5
81B
331
F3D
  5
F41
331
2AF
  5
2AF
331
939
  5
939
331
8EA
  5
8EA
331
823
  5
823
331
2E6
  5
2E6
331
2B7
  5
2B7
331
CE0
  5
CE1
331
F45
  5
F49
331
EB6
  5
EBA
331
CE8
  5
CEA
331
941
  5
941
331
8F2
  5
8F2
331
82B
  5
82B
331
2BF
  5
2BF
331
2EE
  5
2EE
331
100C
  5
1010
331
F4D
  5
F51
331
DB7
  5
DC1
331
CF0
  5
CF4
331
949
  5
949
331
EBE
  5
EC2
331
2F6
  5
2F6
331
2C7
  5
2C7
331
F55
  5
F59
331
951
  5
951
331
EC6
  5
F20
331
883
  5
883
331
F1E
  5
F22
331
DC7
  5
E01
331
2CF
  5
2CF
331
91A
  5
91A
331
2D7
  5
2D7
331
959
  5
959
331
F26
  5
F2A
331
2DF
  5
2DF
331
922
  5
922
  0
SORTENTSTABLE
  5
D54
102
{ACAD_REACTORS
330
D53
102
}
330
D53
100
AcDbSortentsTable
330
D48
  0
LAYOUT
  5
410
102
{ACAD_XDICTIONARY
360
101A
102
}
102
{ACAD_REACTORS
330
40E
102
}
330
40E
100
AcDbPlotSettings
  1

  2
DocuCentre-V C3376
  4
A4
  6

 40
4.900083065032958
 41
4.900057315826416
 42
4.90008544921875
 43
4.90008544921875
 44
210.0156707763672
 45
297.0106506347656
 46
0.0
 47
0.0
 48
0.0
 49
0.0
140
0.0
141
0.0
142
1.0
143
65.19192047460349
 70
 11952
 72
     0
 73
     1
 74
     0
  7

 75
     0
147
0.0153393241481445
148
-6000.09130100486
149
-5899.521791827722
100
AcDbLayout
  1
Model
 70
     1
 71
     0
 10
0.0
 20
0.0
 11
12.0
 21
9.0
 12
0.0
 22
0.0
 32
0.0
 14
0.0
 24
0.0
 34
0.0
 15
0.0
 25
0.0
 35
0.0
146
0.0
 13
0.0
 23
0.0
 33
0.0
 16
1.0
 26
0.0
 36
0.0
 17
0.0
 27
1.0
 37
0.0
 76
     0
330
A
331
15
1001
ACAD_PSEXT
1000
DocuCentre-V C3376
1000
Microsoft IPP Class Driver
1000
http://[fe80::1e7d:22ff:fe0d:98e2%8]/ws
1000

1070
     0
  0
LAYOUT
  5
411
102
{ACAD_XDICTIONARY
360
10F3
102
}
102
{ACAD_REACTORS
330
40E
102
}
330
40E
100
AcDbPlotSettings
  1

  2
DocuCentre-V C3376
  4

  6

 40
0.0
 41
0.0
 42
0.0
 43
0.0
 44
0.0
 45
0.0
 46
0.0
 47
0.0
 48
0.0
 49
0.0
140
0.0
141
0.0
142
1.0
143
1.0
 70
   688
 72
     0
 73
     0
 74
     5
  7

 75
    16
147
1.0
148
0.0
149
0.0
100
AcDbLayout
  1
レイアウト1
 70
     0
 71
     1
 10
0.0
 20
0.0
 11
12.0
 21
9.0
 12
0.0
 22
0.0
 32
0.0
 14
1.000000000000000E+20
 24
1.000000000000000E+20
 34
1.000000000000000E+20
 15
-1.000000000000000E+20
 25
-1.000000000000000E+20
 35
-1.000000000000000E+20
146
0.0
 13
0.0
 23
0.0
 33
0.0
 16
1.0
 26
0.0
 36
0.0
 17
0.0
 27
1.0
 37
0.0
 76
     0
330
B
  0
MATERIAL
  5
3C3
102
{ACAD_XDICTIONARY
360
3C4
102
}
102
{ACAD_REACTORS
330
3BA
102
}
330
3BA
100
AcDbMaterial
  1
ByBlock
 72
     0
 43
0.0208333333333333
 43
0.0
 43
0.0
 43
0.0
 43
0.0
 43
0.0208333333333333
 43
0.0
 43
0.0
 43
0.0
 43
0.0
 43
1.0
 43
0.0
 43
0.0
 43
0.0
 43
0.0
 43
1.0
 77
     0
 47
0.0208333333333333
 47
0.0
 47
0.0
 47
0.0
 47
0.0
 47
0.0208333333333333
 47
0.0
 47
0.0
 47
0.0
 47
0.0
 47
1.0
 47
0.0
 47
0.0
 47
0.0
 47
0.0
 47
1.0
171
     0
 49
0.0208333333333333
 49
0.0
 49
0.0
 49
0.0
 49
0.0
 49
0.0208333333333333
 49
0.0
 49
0.0
 49
0.0
 49
0.0
 49
1.0
 49
0.0
 49
0.0
 49
0.0
 49
0.0
 49
1.0
175
     0
142
0.0208333333333333
142
0.0
142
0.0
142
0.0
142
0.0
142
0.0208333333333333
142
0.0
142
0.0
142
0.0
142
0.0
142
1.0
142
0.0
142
0.0
142
0.0
142
0.0
142
1.0
179
     0
144
0.0208333333333333
144
0.0
144
0.0
144
0.0
144
0.0
144
0.0208333333333333
144
0.0
144
0.0
144
0.0
144
0.0
144
1.0
144
0.0
144
0.0
144
0.0
144
0.0
144
1.0
147
0.0208333333333333
147
0.0
147
0.0
147
0.0
147
0.0
147
0.0208333333333333
147
0.0
147
0.0
147
0.0
147
0.0
147
1.0
147
0.0
147
0.0
147
0.0
147
0.0
147
1.0
  0
MATERIAL
  5
3BB
102
{ACAD_XDICTIONARY
360
3BC
102
}
102
{ACAD_REACTORS
330
3BA
102
}
330
3BA
100
AcDbMaterial
  1
ByLayer
 72
     0
 43
0.0208333333333333
 43
0.0
 43
0.0
 43
0.0
 43
0.0
 43
0.0208333333333333
 43
0.0
 43
0.0
 43
0.0
 43
0.0
 43
1.0
 43
0.0
 43
0.0
 43
0.0
 43
0.0
 43
1.0
 77
     0
 47
0.0208333333333333
 47
0.0
 47
0.0
 47
0.0
 47
0.0
 47
0.0208333333333333
 47
0.0
 47
0.0
 47
0.0
 47
0.0
 47
1.0
 47
0.0
 47
0.0
 47
0.0
 47
0.0
 47
1.0
171
     0
 49
0.0208333333333333
 49
0.0
 49
0.0
 49
0.0
 49
0.0
 49
0.0208333333333333
 49
0.0
 49
0.0
 49
0.0
 49
0.0
 49
1.0
 49
0.0
 49
0.0
 49
0.0
 49
0.0
 49
1.0
175
     0
142
0.0208333333333333
142
0.0
142
0.0
142
0.0
142
0.0
142
0.0208333333333333
142
0.0
142
0.0
142
0.0
142
0.0
142
1.0
142
0.0
142
0.0
142
0.0
142
0.0
142
1.0
179
     0
144
0.0208333333333333
144
0.0
144
0.0
144
0.0
144
0.0
144
0.0208333333333333
144
0.0
144
0.0
144
0.0
144
0.0
144
1.0
144
0.0
144
0.0
144
0.0
144
0.0
144
1.0
147
0.0208333333333333
147
0.0
147
0.0
147
0.0
147
0.0
147
0.0208333333333333
147
0.0
147
0.0
147
0.0
147
0.0
147
1.0
147
0.0
147
0.0
147
0.0
147
0.0
147
1.0
  0
MATERIAL
  5
3CB
102
{ACAD_XDICTIONARY
360
3CC
102
}
102
{ACAD_REACTORS
330
3BA
102
}
330
3BA
100
AcDbMaterial
  1
Global
 72
     0
 43
0.0208333333333333
 43
0.0
 43
0.0
 43
0.0
 43
0.0
 43
0.0208333333333333
 43
0.0
 43
0.0
 43
0.0
 43
0.0
 43
1.0
 43
0.0
 43
0.0
 43
0.0
 43
0.0
 43
1.0
 77
     0
 47
0.0208333333333333
 47
0.0
 47
0.0
 47
0.0
 47
0.0
 47
0.0208333333333333
 47
0.0
 47
0.0
 47
0.0
 47
0.0
 47
1.0
 47
0.0
 47
0.0
 47
0.0
 47
0.0
 47
1.0
171
     0
 49
0.0208333333333333
 49
0.0
 49
0.0
 49
0.0
 49
0.0
 49
0.0208333333333333
 49
0.0
 49
0.0
 49
0.0
 49
0.0
 49
1.0
 49
0.0
 49
0.0
 49
0.0
 49
0.0
 49
1.0
175
     0
142
0.0208333333333333
142
0.0
142
0.0
142
0.0
142
0.0
142
0.0208333333333333
142
0.0
142
0.0
142
0.0
142
0.0
142
1.0
142
0.0
142
0.0
142
0.0
142
0.0
142
1.0
179
     0
144
0.0208333333333333
144
0.0
144
0.0
144
0.0
144
0.0
144
0.0208333333333333
144
0.0
144
0.0
144
0.0
144
0.0
144
1.0
144
0.0
144
0.0
144
0.0
144
0.0
144
1.0
147
0.0208333333333333
147
0.0
147
0.0
147
0.0
147
0.0
147
0.0208333333333333
147
0.0
147
0.0
147
0.0
147
0.0
147
1.0
147
0.0
147
0.0
147
0.0
147
0.0
147
1.0
  0
MLEADERSTYLE
  5
40D
102
{ACAD_REACTORS
330
40C
330
102B
330
102F
330
1030
102
}
330
40C
100
AcDbMLeaderStyle
170
     2
171
     1
172
     0
 90
        2
 40
0.0
 41
0.0
173
     1
 91
-1056964608
340
11
 92
       -2
290
     1
 42
0.09
291
     1
 43
0.36
  3
Standard
 44
0.18
300

342
17
174
     1
178
     6
175
     1
176
     0
 93
-1056964608
 45
0.18
292
     0
297
     0
 46
0.18
 94
-1056964608
 47
1.0
 49
1.0
140
1.0
293
     1
141
0.0
294
     1
177
     0
142
1.0
295
     0
296
     0
143
0.125
1001
ACAD_MLEADERVER
1070
     2
  0
MLINESTYLE
  5
1C
102
{ACAD_REACTORS
330
1B
102
}
330
1B
100
AcDbMlineStyle
  2
STANDARD
 70
     0
  3

 62
     0
 51
90.0
 52
90.0
 71
     2
 49
0.5
 62
   256
  6
BYLAYER
 49
-0.5
 62
   256
  6
BYLAYER
  0
ACDBPLACEHOLDER
  5
3B9
102
{ACAD_REACTORS
330
3B8
102
}
330
3B8
  0
SCALE
  5
3EB
102
{ACAD_REACTORS
330
3EA
102
}
330
3EA
100
AcDbScale
 70
     0
300
1:1
140
1.0
141
1.0
290
     1
  0
SCALE
  5
3EC
102
{ACAD_REACTORS
330
3EA
102
}
330
3EA
100
AcDbScale
 70
     0
300
1:2
140
1.0
141
2.0
290
     0
  0
SCALE
  5
3ED
102
{ACAD_REACTORS
330
3EA
102
}
330
3EA
100
AcDbScale
 70
     0
300
1:4
140
1.0
141
4.0
290
     0
  0
SCALE
  5
3EE
102
{ACAD_REACTORS
330
3EA
102
}
330
3EA
100
AcDbScale
 70
     0
300
1:5
140
1.0
141
5.0
290
     0
  0
SCALE
  5
3EF
102
{ACAD_REACTORS
330
3EA
102
}
330
3EA
100
AcDbScale
 70
     0
300
1:8
140
1.0
141
8.0
290
     0
  0
SCALE
  5
3F0
102
{ACAD_REACTORS
330
3EA
102
}
330
3EA
100
AcDbScale
 70
     0
300
1:10
140
1.0
141
10.0
290
     0
  0
SCALE
  5
3F1
102
{ACAD_REACTORS
330
3EA
102
}
330
3EA
100
AcDbScale
 70
     0
300
1:16
140
1.0
141
16.0
290
     0
  0
SCALE
  5
3F2
102
{ACAD_REACTORS
330
3EA
102
}
330
3EA
100
AcDbScale
 70
     0
300
1:20
140
1.0
141
20.0
290
     0
  0
SCALE
  5
3F3
102
{ACAD_REACTORS
330
3EA
102
}
330
3EA
100
AcDbScale
 70
     0
300
1:30
140
1.0
141
30.0
290
     0
  0
SCALE
  5
3F4
102
{ACAD_REACTORS
330
3EA
102
}
330
3EA
100
AcDbScale
 70
     0
300
1:40
140
1.0
141
40.0
290
     0
  0
SCALE
  5
3F5
102
{ACAD_REACTORS
330
3EA
102
}
330
3EA
100
AcDbScale
 70
     0
300
1:50
140
1.0
141
50.0
290
     0
  0
SCALE
  5
3F6
102
{ACAD_REACTORS
330
3EA
102
}
330
3EA
100
AcDbScale
 70
     0
300
1:100
140
1.0
141
100.0
290
     0
  0
SCALE
  5
3F7
102
{ACAD_REACTORS
330
3EA
102
}
330
3EA
100
AcDbScale
 70
     0
300
2:1
140
2.0
141
1.0
290
     0
  0
SCALE
  5
3F8
102
{ACAD_REACTORS
330
3EA
102
}
330
3EA
100
AcDbScale
 70
     0
300
4:1
140
4.0
141
1.0
290
     0
  0
SCALE
  5
3F9
102
{ACAD_REACTORS
330
3EA
102
}
330
3EA
100
AcDbScale
 70
     0
300
8:1
140
8.0
141
1.0
290
     0
  0
SCALE
  5
3FA
102
{ACAD_REACTORS
330
3EA
102
}
330
3EA
100
AcDbScale
 70
     0
300
10:1
140
10.0
141
1.0
290
     0
  0
SCALE
  5
3FB
102
{ACAD_REACTORS
330
3EA
102
}
330
3EA
100
AcDbScale
 70
     0
300
100:1
140
100.0
141
1.0
290
     0
  0
SCALE
  5
3FC
102
{ACAD_REACTORS
330
3EA
102
}
330
3EA
100
AcDbScale
 70
     0
300
1/128" = 1'-0"
140
0.0078125
141
12.0
290
     0
  0
SCALE
  5
3FD
102
{ACAD_REACTORS
330
3EA
102
}
330
3EA
100
AcDbScale
 70
     0
300
1/64" = 1'-0"
140
0.015625
141
12.0
290
     0
  0
SCALE
  5
3FE
102
{ACAD_REACTORS
330
3EA
102
}
330
3EA
100
AcDbScale
 70
     0
300
1/32" = 1'-0"
140
0.03125
141
12.0
290
     0
  0
SCALE
  5
3FF
102
{ACAD_REACTORS
330
3EA
102
}
330
3EA
100
AcDbScale
 70
     0
300
1/16" = 1'-0"
140
0.0625
141
12.0
290
     0
  0
SCALE
  5
400
102
{ACAD_REACTORS
330
3EA
102
}
330
3EA
100
AcDbScale
 70
     0
300
3/32" = 1'-0"
140
0.09375
141
12.0
290
     0
  0
SCALE
  5
401
102
{ACAD_REACTORS
330
3EA
102
}
330
3EA
100
AcDbScale
 70
     0
300
1/8" = 1'-0"
140
0.125
141
12.0
290
     0
  0
SCALE
  5
402
102
{ACAD_REACTORS
330
3EA
102
}
330
3EA
100
AcDbScale
 70
     0
300
3/16" = 1'-0"
140
0.1875
141
12.0
290
     0
  0
SCALE
  5
403
102
{ACAD_REACTORS
330
3EA
102
}
330
3EA
100
AcDbScale
 70
     0
300
1/4" = 1'-0"
140
0.25
141
12.0
290
     0
  0
SCALE
  5
404
102
{ACAD_REACTORS
330
3EA
102
}
330
3EA
100
AcDbScale
 70
     0
300
3/8" = 1'-0"
140
0.375
141
12.0
290
     0
  0
SCALE
  5
405
102
{ACAD_REACTORS
330
3EA
102
}
330
3EA
100
AcDbScale
 70
     0
300
1/2" = 1'-0"
140
0.5
141
12.0
290
     0
  0
SCALE
  5
406
102
{ACAD_REACTORS
330
3EA
102
}
330
3EA
100
AcDbScale
 70
     0
300
3/4" = 1'-0"
140
0.75
141
12.0
290
     0
  0
SCALE
  5
407
102
{ACAD_REACTORS
330
3EA
102
}
330
3EA
100
AcDbScale
 70
     0
300
1" = 1'-0"
140
1.0
141
12.0
290
     0
  0
SCALE
  5
408
102
{ACAD_REACTORS
330
3EA
102
}
330
3EA
100
AcDbScale
 70
     0
300
1-1/2" = 1'-0"
140
1.5
141
12.0
290
     0
  0
SCALE
  5
409
102
{ACAD_REACTORS
330
3EA
102
}
330
3EA
100
AcDbScale
 70
     0
300
3" = 1'-0"
140
3.0
141
12.0
290
     0
  0
SCALE
  5
40A
102
{ACAD_REACTORS
330
3EA
102
}
330
3EA
100
AcDbScale
 70
     0
300
6" = 1'-0"
140
6.0
141
12.0
290
     0
  0
SCALE
  5
40B
102
{ACAD_REACTORS
330
3EA
102
}
330
3EA
100
AcDbScale
 70
     0
300
1'-0" = 1'-0"
140
12.0
141
12.0
290
     0
  0
TABLESTYLE
  5
3E9
102
{ACAD_XDICTIONARY
360
431
102
}
102
{ACAD_REACTORS
330
3E8
102
}
330
3E8
100
AcDbTableStyle
  3
Standard
 70
     0
 71
     0
 40
0.06
 41
0.06
280
     0
281
     0
  7
STANDARD
140
0.18
170
     2
 62
     0
 63
     7
283
     0
274
    -2
284
     1
 64
     0
275
    -2
285
     1
 65
     0
276
    -2
286
     1
 66
     0
277
    -2
287
     1
 67
     0
278
    -2
288
     1
 68
     0
279
    -2
289
     1
 69
     0
  7
STANDARD
140
0.25
170
     5
 62
     0
 63
     7
283
     0
274
    -2
284
     1
 64
     0
275
    -2
285
     1
 65
     0
276
    -2
286
     1
 66
     0
277
    -2
287
     1
 67
     0
278
    -2
288
     1
 68
     0
279
    -2
289
     1
 69
     0
  7
STANDARD
140
0.18
170
     5
 62
     0
 63
     7
283
     0
274
    -2
284
     1
 64
     0
275
    -2
285
     1
 65
     0
276
    -2
286
     1
 66
     0
277
    -2
287
     1
 67
     0
278
    -2
288
     1
 68
     0
279
    -2
289
     1
 69
     0
  0
VISUALSTYLE
  5
3D9
102
{ACAD_XDICTIONARY
360
10D5
102
}
102
{ACAD_REACTORS
330
3D3
102
}
330
3D3
100
AcDbVisualStyle
  2
2dWireframe
 70
     4
 71
     0
 72
     2
 73
     0
 90
        0
 40
-0.6
 41
-30.0
 62
     5
 63
     7
 74
     1
 91
        4
 64
     7
 65
   257
 75
     1
175
     1
 42
1.0
 92
        0
 66
   257
 43
1.0
 76
     1
 77
     6
 78
     2
 67
     7
 79
     5
170
     0
171
     0
290
     0
174
     0
 93
        1
 44
0.0
173
     0
291
     0
 45
0.0
1001
ACAD
1000
AcDbSavedByObjectVersion
1070
     0
  0
VISUALSTYLE
  5
3DB
102
{ACAD_XDICTIONARY
360
10D9
102
}
102
{ACAD_REACTORS
330
3D3
102
}
330
3D3
100
AcDbVisualStyle
  2
3D Hidden
 70
     6
 71
     1
 72
     2
 73
     2
 90
        0
 40
-0.6
 41
-30.0
 62
     5
 63
     7
 74
     2
 91
        2
 64
     7
 65
   257
 75
     2
175
     1
 42
179.0
 92
        0
 66
   257
 43
1.0
 76
     1
 77
     6
 78
     2
 67
     7
 79
     3
170
     0
171
     0
290
     0
174
     0
 93
        1
 44
0.0
173
     0
291
     0
 45
0.0
1001
ACAD
1000
AcDbSavedByObjectVersion
1070
     0
  0
VISUALSTYLE
  5
3DA
102
{ACAD_XDICTIONARY
360
10D7
102
}
102
{ACAD_REACTORS
330
3D3
102
}
330
3D3
100
AcDbVisualStyle
  2
3dWireframe
 70
     5
 71
     0
 72
     2
 73
     0
 90
        0
 40
-0.6
 41
-30.0
 62
     5
 63
     7
 74
     1
 91
        4
 64
     7
 65
   257
 75
     1
175
     1
 42
1.0
 92
        0
 66
   257
 43
1.0
 76
     1
 77
     6
 78
     2
 67
     7
 79
     5
170
     0
171
     0
290
     0
174
     0
 93
        1
 44
0.0
173
     0
291
     0
 45
0.0
1001
ACAD
1000
AcDbSavedByObjectVersion
1070
     0
  0
VISUALSTYLE
  5
3D8
102
{ACAD_XDICTIONARY
360
10D3
102
}
102
{ACAD_REACTORS
330
3D3
102
}
330
3D3
100
AcDbVisualStyle
  2
Basic
 70
     7
 71
     1
 72
     0
 73
     1
 90
        0
 40
-0.6
 41
-30.0
 62
     5
 63
     7
 74
     0
 91
        4
 64
     7
 65
   257
 75
     1
175
     1
 42
1.0
 92
        8
 66
     7
 43
1.0
 76
     1
 77
     6
 78
     2
 67
     7
 79
     5
170
     0
171
     0
290
     0
174
     0
 93
        1
 44
0.0
173
     0
291
     1
 45
0.0
1001
ACAD
1000
AcDbSavedByObjectVersion
1070
     0
  0
VISUALSTYLE
  5
3DF
102
{ACAD_XDICTIONARY
360
10E1
102
}
102
{ACAD_REACTORS
330
3D3
102
}
330
3D3
100
AcDbVisualStyle
  2
Brighten
 70
    12
 71
     2
 72
     2
 73
     0
 90
        0
 40
-0.6
 41
-30.0
 62
     5
 63
     7
 74
     1
 91
        4
 64
     7
 65
   257
 75
     1
175
     1
 42
1.0
 92
        8
 66
     7
 43
1.0
 76
     1
 77
     6
 78
     2
 67
     7
 79
     5
170
     0
171
     0
290
     0
174
     0
 93
        1
 44
50.0
173
     0
291
     1
 45
0.0
1001
ACAD
1000
AcDbSavedByObjectVersion
1070
     0
  0
VISUALSTYLE
  5
3E3
102
{ACAD_XDICTIONARY
360
10E9
102
}
102
{ACAD_REACTORS
330
3D3
102
}
330
3D3
100
AcDbVisualStyle
  2
ColorChange
 70
    16
 71
     2
 72
     2
 73
     3
 90
        0
 40
-0.6
 41
-30.0
 62
     5
 63
     8
 74
     1
 91
        4
 64
     7
 65
   257
 75
     1
175
     1
 42
1.0
 92
        8
 66
     8
 43
1.0
 76
     1
 77
     6
 78
     2
 67
     7
 79
     5
170
     0
171
     0
290
     0
174
     0
 93
        1
 44
0.0
173
     0
291
     1
 45
0.0
1001
ACAD
1000
AcDbSavedByObjectVersion
1070
     0
  0
VISUALSTYLE
  5
3DC
102
{ACAD_XDICTIONARY
360
10DB
102
}
102
{ACAD_REACTORS
330
3D3
102
}
330
3D3
100
AcDbVisualStyle
  2
Conceptual
 70
     9
 71
     3
 72
     2
 73
     0
 90
        0
 40
-0.6
 41
-30.0
 62
     5
 63
     7
 74
     2
 91
        2
 64
     7
 65
   257
 75
     1
175
     1
 42
179.0
 92
        8
 66
     7
 43
1.0
 76
     1
 77
     6
 78
     2
 67
     7
 79
     3
170
     0
171
     0
290
     0
174
     0
 93
        1
 44
0.0
173
     0
291
     0
 45
0.0
1001
ACAD
1000
AcDbSavedByObjectVersion
1070
     0
  0
VISUALSTYLE
  5
3DE
102
{ACAD_XDICTIONARY
360
10DF
102
}
102
{ACAD_REACTORS
330
3D3
102
}
330
3D3
100
AcDbVisualStyle
  2
Dim
 70
    11
 71
     2
 72
     2
 73
     0
 90
        0
 40
-0.6
 41
-30.0
 62
     5
 63
     7
 74
     1
 91
        4
 64
     7
 65
   257
 75
     1
175
     1
 42
1.0
 92
        8
 66
     7
 43
1.0
 76
     1
 77
     6
 78
     2
 67
     7
 79
     5
170
     0
171
     0
290
     0
174
     0
 93
        1
 44
-50.0
173
     0
291
     1
 45
0.0
1001
ACAD
1000
AcDbSavedByObjectVersion
1070
     0
  0
VISUALSTYLE
  5
3E6
102
{ACAD_XDICTIONARY
360
10EF
102
}
102
{ACAD_REACTORS
330
3D3
102
}
330
3D3
100
AcDbVisualStyle
  2
EdgeColorOff
 70
    22
 71
     2
 72
     2
 73
     0
 90
        0
 40
-0.6
 41
-30.0
 62
     5
 63
     7
 74
     1
 91
        4
 64
     7
 65
   257
 75
     1
175
     1
 42
1.0
 92
        8
 66
     7
 43
1.0
 76
     1
 77
     6
 78
     2
 67
     7
 79
     5
170
     0
171
     0
290
     0
174
     0
 93
        1
 44
0.0
173
     0
291
     1
 45
0.0
1001
ACAD
1000
AcDbSavedByObjectVersion
1070
     0
  0
VISUALSTYLE
  5
3E2
102
{ACAD_XDICTIONARY
360
10E7
102
}
102
{ACAD_REACTORS
330
3D3
102
}
330
3D3
100
AcDbVisualStyle
  2
Facepattern
 70
    15
 71
     2
 72
     2
 73
     0
 90
        0
 40
-0.6
 41
-30.0
 62
     5
 63
     7
 74
     1
 91
        4
 64
     7
 65
   257
 75
     1
175
     1
 42
1.0
 92
        8
 66
     7
 43
1.0
 76
     1
 77
     6
 78
     2
 67
     7
 79
     5
170
     0
171
     0
290
     0
174
     0
 93
        1
 44
0.0
173
     0
291
     1
 45
0.0
1001
ACAD
1000
AcDbSavedByObjectVersion
1070
     0
  0
VISUALSTYLE
  5
3D4
102
{ACAD_XDICTIONARY
360
10CB
102
}
102
{ACAD_REACTORS
330
3D3
102
}
330
3D3
100
AcDbVisualStyle
  2
Flat
 70
     0
 71
     2
 72
     1
 73
     1
 90
        2
 40
-0.6
 41
30.0
 62
     5
 63
     7
 74
     0
 91
        4
 64
     7
 65
   257
 75
     1
175
     1
 42
1.0
 92
        8
 66
     7
 43
1.0
 76
     1
 77
     6
 78
     2
 67
     7
 79
     5
170
     0
171
     0
290
     0
174
     0
 93
       13
 44
0.0
173
     0
291
     1
 45
0.0
1001
ACAD
1000
AcDbSavedByObjectVersion
1070
     0
  0
VISUALSTYLE
  5
3D5
102
{ACAD_XDICTIONARY
360
10CD
102
}
102
{ACAD_REACTORS
330
3D3
102
}
330
3D3
100
AcDbVisualStyle
  2
FlatWithEdges
 70
     1
 71
     2
 72
     1
 73
     1
 90
        2
 40
-0.6
 41
30.0
 62
     5
 63
     7
 74
     1
 91
        4
 64
     7
 65
   257
 75
     1
175
     1
 42
1.0
 92
        0
 66
   257
 43
1.0
 76
     1
 77
     6
 78
     2
 67
     7
 79
     5
170
     0
171
     0
290
     0
174
     0
 93
       13
 44
0.0
173
     0
291
     1
 45
0.0
1001
ACAD
1000
AcDbSavedByObjectVersion
1070
     0
  0
VISUALSTYLE
  5
3D6
102
{ACAD_XDICTIONARY
360
10CF
102
}
102
{ACAD_REACTORS
330
3D3
102
}
330
3D3
100
AcDbVisualStyle
  2
Gouraud
 70
     2
 71
     2
 72
     2
 73
     1
 90
        2
 40
-0.6
 41
30.0
 62
     5
 63
     7
 74
     0
 91
        4
 64
     7
 65
   257
 75
     1
175
     1
 42
1.0
 92
        0
 66
     7
 43
1.0
 76
     1
 77
     6
 78
     2
 67
     7
 79
     5
170
     0
171
     0
290
     0
174
     0
 93
       13
 44
0.0
173
     0
291
     1
 45
0.0
1001
ACAD
1000
AcDbSavedByObjectVersion
1070
     0
  0
VISUALSTYLE
  5
3D7
102
{ACAD_XDICTIONARY
360
10D1
102
}
102
{ACAD_REACTORS
330
3D3
102
}
330
3D3
100
AcDbVisualStyle
  2
GouraudWithEdges
 70
     3
 71
     2
 72
     2
 73
     1
 90
        2
 40
-0.6
 41
30.0
 62
     5
 63
     7
 74
     1
 91
        4
 64
     7
 65
   257
 75
     1
175
     1
 42
1.0
 92
        0
 66
   257
 43
1.0
 76
     1
 77
     6
 78
     2
 67
     7
 79
     5
170
     0
171
     0
290
     0
174
     0
 93
       13
 44
0.0
173
     0
291
     1
 45
0.0
1001
ACAD
1000
AcDbSavedByObjectVersion
1070
     0
  0
VISUALSTYLE
  5
3E4
102
{ACAD_XDICTIONARY
360
10EB
102
}
102
{ACAD_REACTORS
330
3D3
102
}
330
3D3
100
AcDbVisualStyle
  2
JitterOff
 70
    20
 71
     2
 72
     2
 73
     0
 90
        0
 40
-0.6
 41
-30.0
 62
     5
 63
     7
 74
     1
 91
        4
 64
     7
 65
   257
 75
     1
175
     1
 42
1.0
 92
       10
 66
     7
 43
1.0
 76
     1
 77
     6
 78
     2
 67
     7
 79
     5
170
     0
171
     0
290
     0
174
     0
 93
        1
 44
0.0
173
     0
291
     1
 45
0.0
1001
ACAD
1000
AcDbSavedByObjectVersion
1070
     0
  0
VISUALSTYLE
  5
3E1
102
{ACAD_XDICTIONARY
360
10E5
102
}
102
{ACAD_REACTORS
330
3D3
102
}
330
3D3
100
AcDbVisualStyle
  2
Linepattern
 70
    14
 71
     2
 72
     2
 73
     0
 90
        0
 40
-0.6
 41
-30.0
 62
     5
 63
     7
 74
     1
 91
        4
 64
     7
 65
   257
 75
     7
175
     7
 42
1.0
 92
        8
 66
     7
 43
1.0
 76
     1
 77
     6
 78
     2
 67
     7
 79
     5
170
     0
171
     0
290
     0
174
     0
 93
        1
 44
0.0
173
     0
291
     1
 45
0.0
1001
ACAD
1000
AcDbSavedByObjectVersion
1070
     0
  0
VISUALSTYLE
  5
3E5
102
{ACAD_XDICTIONARY
360
10ED
102
}
102
{ACAD_REACTORS
330
3D3
102
}
330
3D3
100
AcDbVisualStyle
  2
OverhangOff
 70
    21
 71
     2
 72
     2
 73
     0
 90
        0
 40
-0.6
 41
-30.0
 62
     5
 63
     7
 74
     1
 91
        4
 64
     7
 65
   257
 75
     1
175
     1
 42
1.0
 92
        9
 66
     7
 43
1.0
 76
     1
 77
     6
 78
     2
 67
     7
 79
     5
170
     0
171
     0
290
     0
174
     0
 93
        1
 44
0.0
173
     0
291
     1
 45
0.0
1001
ACAD
1000
AcDbSavedByObjectVersion
1070
     0
  0
VISUALSTYLE
  5
3DD
102
{ACAD_XDICTIONARY
360
10DD
102
}
102
{ACAD_REACTORS
330
3D3
102
}
330
3D3
100
AcDbVisualStyle
  2
Realistic
 70
     8
 71
     2
 72
     2
 73
     0
 90
        0
 40
-0.6
 41
-30.0
 62
     5
 63
     7
 74
     1
 91
        0
 64
     7
 65
   257
 75
     1
175
     1
 42
1.0
 92
        8
 66
     8
 43
1.0
 76
     1
 77
     6
 78
     2
 67
     7
 79
     5
170
     0
171
     0
290
     0
174
     0
 93
       13
 44
0.0
173
     0
291
     0
 45
0.0
1001
ACAD
1000
AcDbSavedByObjectVersion
1070
     0
  0
VISUALSTYLE
  5
3E0
102
{ACAD_XDICTIONARY
360
10E3
102
}
102
{ACAD_REACTORS
330
3D3
102
}
330
3D3
100
AcDbVisualStyle
  2
Thicken
 70
    13
 71
     2
 72
     2
 73
     0
 90
        0
 40
-0.6
 41
-30.0
 62
     5
 63
     7
 74
     1
 91
        4
 64
     7
 65
   257
 75
     1
175
     1
 42
1.0
 92
       12
 66
     7
 43
1.0
 76
     1
 77
     6
 78
     2
 67
     7
 79
     5
170
     0
171
     0
290
     0
174
     0
 93
        1
 44
0.0
173
     0
291
     1
 45
0.0
1001
ACAD
1000
AcDbSavedByObjectVersion
1070
     0
  0
DICTIONARYVAR
  5
469
102
{ACAD_REACTORS
330
466
102
}
330
466
100
DictionaryVariables
280
     0
  1
1:1
  0
DICTIONARYVAR
  5
468
102
{ACAD_REACTORS
330
466
102
}
330
466
100
DictionaryVariables
280
     0
  1
STANDARD
  0
DICTIONARYVAR
  5
467
102
{ACAD_REACTORS
330
466
102
}
330
466
100
DictionaryVariables
280
     0
  1
STANDARD
  0
DICTIONARYVAR
  5
46C
102
{ACAD_REACTORS
330
466
102
}
330
466
100
DictionaryVariables
280
     0
  1
1
  0
DICTIONARYVAR
  5
46B
102
{ACAD_REACTORS
330
466
102
}
330
466
100
DictionaryVariables
280
     0
  1
0
  0
DICTIONARYVAR
  5
10A0
102
{ACAD_REACTORS
330
466
102
}
330
466
100
DictionaryVariables
280
     0
  1
1
  0
DICTIONARYVAR
  5
10A1
102
{ACAD_REACTORS
330
466
102
}
330
466
100
DictionaryVariables
280
     0
  1
15
  0
DICTIONARYVAR
  5
109F
102
{ACAD_REACTORS
330
466
102
}
330
466
100
DictionaryVariables
280
     0
  1
0
  0
DICTIONARYVAR
  5
109E
102
{ACAD_REACTORS
330
466
102
}
330
466
100
DictionaryVariables
280
     0
  1
0
  0
DICTIONARYVAR
  5
46A
102
{ACAD_REACTORS
330
466
102
}
330
466
100
DictionaryVariables
280
     0
  1
127
  0
DICTIONARYVAR
  5
10C4
102
{ACAD_REACTORS
330
466
102
}
330
466
100
DictionaryVariables
280
     0
  1
2
  0
DICTIONARY
  5
101A
330
410
100
AcDbDictionary
280
     1
281
     1
  3
ACAD_XREC_ROUNDTRIP
360
10F2
  3
ADSK_XREC_LAYOUTTHUMBNAIL
360
101B
  0
DICTIONARY
  5
10F3
330
411
100
AcDbDictionary
280
     1
281
     1
  3
ACAD_XREC_ROUNDTRIP
360
10F4
  0
DICTIONARY
  5
3C4
330
3C3
100
AcDbDictionary
280
     1
281
     1
  3
ACAD_XREC_ROUNDTRIP
360
10C9
  3
BUMPTILE
360
3C6
  3
DIFFUSETILE
360
3C5
  3
OPACITYTILE
360
3C9
  3
REFLECTIONTILE
360
3C8
  3
REFRACTIONTILE
360
3CA
  3
SPECULARTILE
360
3C7
  0
DICTIONARY
  5
3BC
330
3BB
100
AcDbDictionary
280
     1
281
     1
  3
ACAD_XREC_ROUNDTRIP
360
10C8
  3
BUMPTILE
360
3BE
  3
DIFFUSETILE
360
3BD
  3
OPACITYTILE
360
3C1
  3
REFLECTIONTILE
360
3C0
  3
REFRACTIONTILE
360
3C2
  3
SPECULARTILE
360
3BF
  0
DICTIONARY
  5
3CC
330
3CB
100
AcDbDictionary
280
     1
281
     1
  3
ACAD_XREC_ROUNDTRIP
360
10CA
  3
BUMPTILE
360
3CE
  3
DIFFUSETILE
360
3CD
  3
OPACITYTILE
360
3D1
  3
REFLECTIONTILE
360
3D0
  3
REFRACTIONTILE
360
3D2
  3
SPECULARTILE
360
3CF
  0
DICTIONARY
  5
431
330
3E9
100
AcDbDictionary
280
     1
281
     1
  3
ACAD_ROUNDTRIP_2008_TABLESTYLE_CELLSTYLEMAP
360
10C5
  3
ACAD_XREC_ROUNDTRIP
360
10F1
  0
DICTIONARY
  5
10D5
330
3D9
100
AcDbDictionary
280
     1
281
     1
  3
ACAD_XREC_ROUNDTRIP
360
10D6
  0
DICTIONARY
  5
10D9
330
3DB
100
AcDbDictionary
280
     1
281
     1
  3
ACAD_XREC_ROUNDTRIP
360
10DA
  0
DICTIONARY
  5
10D7
330
3DA
100
AcDbDictionary
280
     1
281
     1
  3
ACAD_XREC_ROUNDTRIP
360
10D8
  0
DICTIONARY
  5
10D3
330
3D8
100
AcDbDictionary
280
     1
281
     1
  3
ACAD_XREC_ROUNDTRIP
360
10D4
  0
DICTIONARY
  5
10E1
330
3DF
100
AcDbDictionary
280
     1
281
     1
  3
ACAD_XREC_ROUNDTRIP
360
10E2
  0
DICTIONARY
  5
10E9
330
3E3
100
AcDbDictionary
280
     1
281
     1
  3
ACAD_XREC_ROUNDTRIP
360
10EA
  0
DICTIONARY
  5
10DB
330
3DC
100
AcDbDictionary
280
     1
281
     1
  3
ACAD_XREC_ROUNDTRIP
360
10DC
  0
DICTIONARY
  5
10DF
330
3DE
100
AcDbDictionary
280
     1
281
     1
  3
ACAD_XREC_ROUNDTRIP
360
10E0
  0
DICTIONARY
  5
10EF
330
3E6
100
AcDbDictionary
280
     1
281
     1
  3
ACAD_XREC_ROUNDTRIP
360
10F0
  0
DICTIONARY
  5
10E7
330
3E2
100
AcDbDictionary
280
     1
281
     1
  3
ACAD_XREC_ROUNDTRIP
360
10E8
  0
DICTIONARY
  5
10CB
330
3D4
100
AcDbDictionary
280
     1
281
     1
  3
ACAD_XREC_ROUNDTRIP
360
10CC
  0
DICTIONARY
  5
10CD
330
3D5
100
AcDbDictionary
280
     1
281
     1
  3
ACAD_XREC_ROUNDTRIP
360
10CE
  0
DICTIONARY
  5
10CF
330
3D6
100
AcDbDictionary
280
     1
281
     1
  3
ACAD_XREC_ROUNDTRIP
360
10D0
  0
DICTIONARY
  5
10D1
330
3D7
100
AcDbDictionary
280
     1
281
     1
  3
ACAD_XREC_ROUNDTRIP
360
10D2
  0
DICTIONARY
  5
10EB
330
3E4
100
AcDbDictionary
280
     1
281
     1
  3
ACAD_XREC_ROUNDTRIP
360
10EC
  0
DICTIONARY
  5
10E5
330
3E1
100
AcDbDictionary
280
     1
281
     1
  3
ACAD_XREC_ROUNDTRIP
360
10E6
  0
DICTIONARY
  5
10ED
330
3E5
100
AcDbDictionary
280
     1
281
     1
  3
ACAD_XREC_ROUNDTRIP
360
10EE
  0
DICTIONARY
  5
10DD
330
3DD
100
AcDbDictionary
280
     1
281
     1
  3
ACAD_XREC_ROUNDTRIP
360
10DE
  0
DICTIONARY
  5
10E3
330
3E0
100
AcDbDictionary
280
     1
281
     1
  3
ACAD_XREC_ROUNDTRIP
360
10E4
  0
XRECORD
  5
10F2
102
{ACAD_REACTORS
330
101A
102
}
330
101A
100
AcDbXrecord
280
     1
102
SHADEPLOT
 70
     0
102
SHADEPLOTRESLEVEL
 70
     2
102
SHADEPLOTCUSTOMDPI
 70
   300
  0
XRECORD
  5
101B
102
{ACAD_REACTORS
330
101A
102
}
330
101A
100
AcDbXrecord
280
     1
310
280000000001000076000000010008000000000000760000000000000000000000010000000000000000000000000000FFFFFF000000000000000000000000000000000000000000000000000000000000000000330000006600000099000000CC000000FF00000000330000333300006633000099330000CC330000FF3300
310
0000660000336600006666000099660000CC660000FF66000000990000339900006699000099990000CC990000FF99000000CC000033CC000066CC000099CC0000CCCC0000FFCC000000FF000033FF000066FF000099FF0000CCFF0000FFFF000000003300330033006600330099003300CC003300FF003300003333003333
310
33006633330099333300CC333300FF33330000663300336633006666330099663300CC663300FF66330000993300339933006699330099993300CC993300FF99330000CC330033CC330066CC330099CC3300CCCC3300FFCC330000FF330033FF330066FF330099FF3300CCFF3300FFFF330000006600330066006600660099
310
006600CC006600FF00660000336600333366006633660099336600CC336600FF33660000666600336666006666660099666600CC666600FF66660000996600339966006699660099996600CC996600FF99660000CC660033CC660066CC660099CC6600CCCC6600FFCC660000FF660033FF660066FF660099FF6600CCFF6600
310
FFFF660000009900330099006600990099009900CC009900FF00990000339900333399006633990099339900CC339900FF33990000669900336699006666990099669900CC669900FF66990000999900339999006699990099999900CC999900FF99990000CC990033CC990066CC990099CC9900CCCC9900FFCC990000FF99
310
0033FF990066FF990099FF9900CCFF9900FFFF99000000CC003300CC006600CC009900CC00CC00CC00FF00CC000033CC003333CC006633CC009933CC00CC33CC00FF33CC000066CC003366CC006666CC009966CC00CC66CC00FF66CC000099CC003399CC006699CC009999CC00CC99CC00FF99CC0000CCCC0033CCCC0066CC
310
CC0099CCCC00CCCCCC00FFCCCC0000FFCC0033FFCC0066FFCC0099FFCC00CCFFCC00FFFFCC000000FF003300FF006600FF009900FF00CC00FF00FF00FF000033FF003333FF006633FF009933FF00CC33FF00FF33FF000066FF003366FF006666FF009966FF00CC66FF00FF66FF000099FF003399FF006699FF009999FF00CC
310
99FF00FF99FF0000CCFF0033CCFF0066CCFF0099CCFF00CCCCFF00FFCCFF0000FFFF0033FFFF0066FFFF0099FFFF00CCFFFF00FFFFFF00000000000D0D0D001A1A1A00282828003535350043434300505050005D5D5D006B6B6B00787878008686860093939300A1A1A100AEAEAE00BBBBBB00C9C9C900D6D6D600E4E4E400
310
F1F1F100FFFFFF0000000000000000000000000000000000000000000000000000000000000000000000000000000000E2E2E2E2E2E2E2E2E2E2E2E2E2E2E2E2E2E2E2E2E2E2E2E2E2E2E2E2E2E2E2E22DE2E2E2DCE2DCE2E2E2E2E2E2E2E2E2E2E2E2E2E2E2E2E2E2E2E2E2E2E2E2E2E2E2E2E2E2E2E2E2E2E2E2E2E2E2E2
310
E2E2E2E2E2E2E2E2E2E2E2E2E2E2E2E2E2E2E2E2E2E2E2E2E2E2E2E2E2E2E2E2E2E2E2E2E2E2E2E2E2E2E2E2F5F5F5F5F5DCDCDCDCF5F5DCDCF5DCDCDCDCDCDCDCDCF5F5E2E2E2E2E2E2E2E2E2E2F5F5F5E2F5F5F5F5F5F5E2E2DCF5F5F5F5F5F5F5F5F5F5F5F5F5F5DCDCDCDCDCDCDCDCDCDCDCDCDCDCE2E2DCE2DCE2E2E2
310
2DE2E2E2E2E2E2E2E2E2E2E2E2E2E2E2E2E2E2E2E2E2E2E2E2E2E2E2E2E2E2E2E2E2E2E2E2E2E2E2E2E2E2E2E2E2E2E2E2E2E2E2E2E2E2E2E2E2E2E2E2E2E2E2E2E2E2E2E2E2E2E2E2E2E2E2E2E2E2E2E2E22DE2E2E2DCE2DCE2E2E2E2E2E2E2E2E2E2E2E2E2E2E2E2E2E2E2E2E2E2E2E2E2E2E2E2E2E2E2E2E2E2E2E2E2E2
310
E2E2E2E2E2E2E2E2E2E2E2E2E2E2E2E2E2E2E2E2E2E2E2E2E2E2E2E2E2E2E2E2E2E2E2E2E2E2E2E2E2E2E2E2E2E2DCE2DCF5F5E2E2E2E2E2E2E2E2E2E2DCE2E2DCE2E2DCF5F5E2E2E2E2E2E2E2E2E2E2DCF5DCE2F5F5E2F5F5F5E2E2DCF5F5F5F5F5F5F5F5F5F5F5F5F5F5E2E2E2E2E2E2E2E2E2E2E2E2E2DCE2E2E2DCDCE2
310
E2E22DE2E2E2E2E2E2E2E2E2E2E2E2E2E2E2E2E2E2E2E2E2E2E2E2E2E2E2E2E2E2E2E2E2E2E2E2E2E2E2E2E2E2E2E2E2E2E2E2E2E2E2E2E2E2E2E2E2E2E2E2E2E2E2E2E2E2E2E2E2E2E2E2E2E2E2E2E2E2E2E2E22DE2E2E2DCE2DCE2E2E2E2E2E2E2E2E2E2E2E2E2E2E2E2E2E2E2E2E2E2E2E2E2E2E2E2E2E2E2E2E2E2E2E2
310
E2E2E2E2E2E2E2E2E2E2E2E2E2E2E2E2E2E2E2E2E2E2E2E2E2E2E2E2E2E2E2E2E2E2E2E2E2E2E2E2E2E2E2E2E2E2E2E2DCE2DCF5F5DCDCDCDCF5F5DCDCF5DCDCDCDCDCDCDCDCF5F5DCDCDCDCDCDCDCDCDCDCDCDCDCDCDCDCDCDCDCDCDCDCDCDCDCDCDCDCDCDCDCDCDCDCDCDCDCDCDCDCDCDCDCDCDCDCDCDCDCDCDCDCDCDCDC
310
DCE2E2E22DE2E2E2E2E2E2E2E2E2E2E2E2E2E2E2E2E2E2E2E2E2E2E2E2E2E2E2E2E2E2E2E2E2E2E2E2E2E2E2E2E2E2E2E2E2E2E2E2E2E2E2E2E2E2E2E2E2E2E2E2E2E2E2E2E2E2E2E2E2E2E2E2E2E2E2E2E2E2E2E2E22DE2E2E2DCE2DCE2E2E2E2E2E2E2E2E2E2E2E2E2E2E2E2E2E2E2E2E2E2E2E2E2E2E2E2E2E2E2E2E2E2
310
E2E2E2E2E2E2E2E2E2E2E2E2E2E2E2E2E2E2E2E2E2E2E2E2E2E2E2E2E2E2E2E2E2E2E2E2E2E2E2E2E2E2E2E2E2E2E2E2E2E2DCE2DCF5F5E2E2E2E2E2E2E2E2E2E2DCE2E2DCE2E2DCF5F5E2F5F5F5F5F5F5F5E2F5F5E2F5F5F5F5F5F5F5F5F5F5F5F5F5E2F5F5F5F5F5F5E2F5F5F5E2F5F5F5E2E2E2E2E2E2E2E2E2E2E2E2E2
310
E2E2DCE2E2E22DE2E2E2E2E2E2E2E2E2E2E2E2E2E2E2E2E2E2E2E2E2E2E2E2E2E2E2E2E2E2E2E2E2E2E2E2E2E2E2E2E2E2E2E2E2E2E2E2E2E2E2E2E2E2E2E2E2E2E2E2E2E2E2E2E2E2E2E2E2E2E2E2E2E2E2E2E2E2E2E2E22DE2E2E2DCE2DCE2E2E2E2E2E2E2E2E2E2E2E2E2E2E2E2E2E2E2E2E2E2E2E2E2E2E2E2E2E2E2E2
310
E2E2E2E2E2E2E2E2E2E2E2E2E2E2E2E2E2E2E2E2E2E2E2E2E2E2E2E2E2E2E2E2E2E2E2E2E2E2E2E2E2E2E2E2E2E2E2E2E2E2E2E2F5F5F5DCF5DCDCDCDCF5F5DCDCF5DCDCDCDCDCDCDCDCF5F5E2F5F5F5F5F5F5F5F5F5F5F5F5F5F5F5F5F5F5F5F5F5F5F5F5E2F5F5F5F5F5F5F5F5F5F5F5F5F5F5E2E2E2E2E2E2E2E2E2E2E2
310
E2E2E2E2DCE2E2E22DE2E2E2E2E2E2E2E2E2E2E2E2E2E2E2E2E2E2E2E2E2E2E2E2E2E2E2E2E2E2E2E2E2E2E2E2E2E2E2E2E2E2E2E2E2E2E2E2E2E2E2E2E2E2E2E2E2E2E2E2E2E2E2E2E2E2E2E2E2E2E2E2E2E2E2E2E2E2E2E2E22DE2E2E2DCE2DCE2E2E2E2E2E2E2E2E2E2E2E2E2E2E2E2E2E2E2E2E2E2E2E2E2E2E2E2E2E2
310
E2E2E2E2E2E2E2E2E2E2E2E2E2E2E2E2E2E2E2E2E2E2E2E2E2E2E2E2E2E2E2E2E2E2E2E2E2E2E2E2E2E2E2E2E2E2E2E2E2E2E2E2E2E2F5F5F5F5F5E2E2E2E2E2E2E2E2E2E2DCE2E2DCE2E2DCF5F5E2E2F5F5F5F5F5E2E2E2E2E2E2E2E2E2E2E2E2E2E2E2E2E2E2E2E2F5F5F5F5E2E2F5F5F5E2F5F5E2E2E2E2E2E2E2E2E2E2
310
E2E2E2E2E2E2DCE2E2E22DE2E2E2E2E2E2E2E2E2E2E2E2E2E2E2E2E2E2E2E2E2E2E2E2E2E2E2E2E2E2E2E2E2E2E2E2E2E2E2E2E2E2E2E2E2E2E2E2E2E2E2E2E2E2E2E2E2E2E2E2E2E2E2E2E2E2E2E2E2E2E2E2E2E2E2E2E2E2E2E2E22DE2E2E2DCDCDCDCDCDCDCDCDCDCDCDCDCDCDCDCDCDCDCDCDCDCDCDCDCDCDCDCDCDCDC
310
DCDCDCDCDCDCDCDCDCDCDCDCDCDCDCDCDCDCDCDCDCDCDCDCDCDCDCDCDCDCDCDCDCDCDCDCDCDCDCDCDCDCDCDCDCDCDCDCDCDCDCDCDCDCDCDCDCDCDCDCDCDCDCDCDCDCDCDCDCDCDCDCDCDCDCDCDCDCF5DCDCDCDCDCDCDCDCDCDCDCDCDCDCDCDCDCDCDCDCDCDCDCDCDCDCDCDCDCDCDCDCDCDCDCDCDCDCDCDCDCDCDCDCDCDCDCDC
310
DCDCDCDCDCDCDCDCDCE2E2E22DE2E2E2E2E2E2E2E2E2E2E2E2E2E2E2E2E2E2E2E2E2E2E2E2E2E2E2E2E2E2E2E2E2E2E2E2E2E2E2E2E2E2E2E2E2E2E2E2E2E2E2E2E2E2E2E2E2E2E2E2E2E2E2E2E2E2E2E2E2E2E2E2E2E2E2E2E2E2E2E2E22DE2E2E2DCE2E2E2E2E2E2E2E2E2E2E2E2E2E2E2E2E2E2E2E2E2E2E2E2E2E2E2E2
310
E2E2E2E2E2E2E2E2E2E2E2E2E2E2E2E2E2E2E2E2E2E2E2E2E2E2E2E2E2E2E2E2E2E2E2E2E2E2E2E2E2E2E2E2E2E2E2E2E2E2E2E2E2E2E2E2E2E2E2E2E2E2E2E2E2E2E2E2E2E2E2E2E2E2E2E2E2E2E2E2E2E2E2E2E2E2E2E2E2E2E2E2E2E2E2E2E2E2E2E2E2E2E2E2E2E2E2E2E2E2E2E2E2E2E2E2E2E2E2E2E2E2E2E2E2E2E2
310
E2E2E2E2E2E2E2E2E2E2DCE2E2E22DE2E2E2E2E2E2E2E2E2E2E2E2E2E2E2E2E2E2E2E2E2E2E2E2E2E2E2E2E2E2E2E2E2E2E2E2E2E2E2E2E2E2E2E2E2E2E2E2E2E2E2E2E2E2E2E2E2E2E2E2E2E2E2E2E2E2E2E2E2E2E2E2E2E2E2E2E2E2E2E2E22DE2E2E2DCE2E2E2E2E2E2E2E2E2E2E2E2E2E2E2E2E2E2E2E2E2E2E2E2E2E2
310
E2E2E2E2E2E2E2E2E2E2E2E2E2E2E2E2E2E2E2E2E2E2E2E2E2E2E2E2E2E2E2E2E2E2E2E2E2E2E2E2E2E2E2E2E2E2E2E2E2E2E2E2E2E2E2E2E2E2E2E2E2E2E2E2E2E2E2E2E2E2E2E2E2E2E2E2E2E2E2E2E2E2E2E2E2E2E2E2E2E2E2E2E2E2E2E2E2E2E2E2E2E2E2E2E2E2E2E2E2E2E2E2E2E2E2E2E2E2E2E2E2E2E2E2E2E2E2
310
E2E2E2E2E2E2E2E2E2E2E2E2DCE2E2E22DE2E2E2E2E2E2E2E2E2E2E2E2E2E2E2E2E2E2E2E2E2E2E2E2E2E2E2E2E2E2E2E2E2E2E2E2E2E2E2E2E2E2E2E2E2E2E2E2E2E2E2E2E2E2E2E2E2E2E2E2E2E2E2E2E2E2E2E2E2E2E2E2E2E2E2E2E2E2E2E2E22DE2E2E2DCE2E2E2E2E2E2E2E2E2E2E2E2E2E2E2E2E2E2E2E2E2E2E2E2
310
E2E2E2E2E2E2E2E2E2E2E2E2E2E2E2E2E2E2E2E2E2E2E2E2E2E2E2E2E2E2E2E2E2E2E2E2E2E2E2E2E2E2E2E2E2E2E2E2E2E2E2E2E2E2E2E2E2E2E2E2E2E2E2E2E2E2E2E2E2E2E2E2E2E2E2E2E2E2E2E2E2E2E2E2E2E2E2E2E2E2E2E2E2E2E2E2E2E2E2E2E2E2E2E2E2E2E2E2E2E2E2E2E2E2E2E2E2E2E2E2E2E2E2E2E2E2E2
310
E2E2E2E2E2E2E2E2E2E2E2E2E2E2DCE2E2E22DE2E2E2E2E2E2E2E2E2E2E2E2E2E2E2E2E2E2E2E2E2E2E2E2E2E2E2E2E2E2E2E2E2E2E2E2E2E2E2E2E2E2E2E2E2E2E2E2E2E2E2E2E2E2E2E2E2E2E2E2E2E2E2E2E2E2E2E2E2E2E2E2E2E2E2E2E2E2E2E2E22DE2E2E2DCE2E2E2E2E2E2E2E2E2E2E2E2E2E2E2E2E2E2E2E2E2E2
310
E2E2E2E2E2E2E2E2E2E2F5F5F5F5F5F5F5F5E2E2E2E2E2E2E2E2E2E2E2E2E2E2E2E2E2E2E2E2E2E2E2E2E2E2E2E2E2E2E2E2E2E2E2E2E2E2E2E2E2E2E2E2E2E2E2E2E2E2E2E2E2E2F5F5F5F5F5F5F5F5E2E2E2E2E2E2E2E2E2E2E2E2E2E2E2E2E2E2E2E2E2E2E2E2E2E2E2E2E2E2E2E2E2E2E2E2E2E2E2E2E2E2E2E2E2E2E2
310
E2E2E2E2E2E2E2E2E2E2E2E2E2E2E2E2DCE2E2E22DE2E2E2E2E2E2E2E2E2E2E2E2E2E2E2E2E2E2E2E2E2E2E2E2E2E2E2E2E2E2E2E2E2E2E2E2E2E2E2E2E2E2E2E2E2E2E2E2E2E2E2E2E2E2E2E2E2E2E2E2E2E2E2E2E2E2E2E2E2E2E2E2E2E2E2E2E2E2E2E2E22DE2E2E2DCE2E2E2E2E2E2E2E2E2E2E2E2E2E2E2E2E2E2E2E2
310
E2E2E2E2E2E2E2E2E2E2E2E2F5F5F5F5F5F5F5F5E2E2E2E2E2E2E2E2E2E2E2E2E2E2E2E2E2E2E2E2E2E2E2E2E2E2E2E2E2E2E2E2E2E2E2E2E2E2E2E2E2E2E2E2E2E2E2E2E2E2E2E2E2E2F5F5F5F5F5F5F5F5E2E2E2E2E2E2E2E2E2E2E2E2E2E2E2E2E2E2E2E2E2E2E2E2E2E2E2E2E2E2E2E2E2E2E2E2E2E2E2E2E2E2E2E2E2
310
E2E2E2E2E2E2E2E2E2E2E2E2E2E2E2E2E2E2DCE2E2E22DE2E2E2E2E2E2E2E2E2E2E2E2E2E2E2E2E2E2E2E2E2E2E2E2E2E2E2E2E2E2E2E2E2E2E2E2E2E2E2E2E2E2E2E2E2E2E2E2E2E2E2E2E2E2E2E2E2E2E2E2E2E2E2E2E2E2E2E2E2E2E2E2E2E2E2E2E2E2E2E2E22DE2E2E2DCE2E2E2E2E2E2E2E2E2E2E2E2E2E2E2E2E2E2
310
E2E2E2E2E2E2E2E2E2E2E2E2E2E2F5F5F5F5F5F5F5F5E2E2E2E2E2E2E2E2E2E2E2E2E2E2E2E2E2E2E2E2E2E2E2E2E2E2E2E2E2E2E2E2E2E2E2E2E2E2E2E2E2E2E2E2E2E2E2E2E2E2E2E2E2E2F5F5F5F5F5F5F5F5E2E2E2E2E2E2E2E2E2E2E2E2E2E2E2E2E2E2E2E2E2E2E2E2E2E2E2E2E2E2E2E2E2E2E2E2E2E2E2E2E2E2E2
310
E2E2E2E2E2E2E2E2E2E2E2E2E2E2E2E2E2E2E2E2DCE2E2E22DE2E2E2E2E2E2E2E2E2E2E2E2E2E2E2E2E2E2E2E2E2E2E2E2E2E2E2E2E2E2E2E2E2E2E2E2E2E2E2E2E2E2E2E2E2E2E2E2E2E2E2E2E2E2E2E2E2E2E2E2E2E2E2E2E2E2E2E2E2E2E2E2E2E2E2E2E2E2E2E2E22DE2E2E2DCE2E2E2E2E2E2E2E2E2E2E2E2E2E2E2E2
310
E2E2E2E2E2E2E2E2E2E2E2E2E2E2E2E2F5F5F5F5F5F5F5F5E2E2E2E2E2E2E2E2E2E2E2E2E2E2E2E2E2E2E2E2E2E2E2E2E2E2E2E2E2E2E2E2E2E2E2E2E2E2E2E2E2E2E2E2E2E2E2E2E2E2E2E2E2E2F5F5F5F5F5F5F5F5E2E2E2E2E2E2E2E2E2E2E2E2E2E2E2E2E2E2E2E2E2E2E2E2E2E2E2E2E2E2E2E2E2E2E2E2E2E2E2E2E2
310
E2E2E2E2E2E2E2E2E2E2E2E2E2E2E2E2E2E2E2E2E2E2DCE2E2E22DE2E2E2E2E2E2E2E2E2E2E2E2E2E2E2E2E2E2E2E2E2E2E2E2E2E2E2E2E2E2E2E2E2E2E2E2E2E2E2E2E2E2E2E2E2E2E2E2E2E2E2E2E2E2E2E2E2E2E2E2E2E2E2E2E2E2E2E2E2E2E2E2E2E2E2E2E2E2E2E2E22DE2E2E2DCE2E2E2E2E2E2E2E2E2E2E2E2E2E2
310
E2E2E2E2E2E2E2E2E2E2E2E2E2E2E2E2E2E2E2E2E2E2E2E2E2E2E2E2E2E2E2E2E2E2E2E2E2E2E2E2E2E2E2E2E2E2E2E2E2E2E2E2E2E2E2E2E2E2E2E2E2E2E2E2E2E2E2E2E2E2E2E2E2E2E2E2E2E2E2E2E2E2E2E2E2E2E2E2E2E2E2E2E2E2E2E2E2E2E2E2E2E2E2E2E2E2E2E2E2E2E2E2E2E2E2E2E2E2E2E2E2E2E2E2E2E2E2
310
E2E2E2E2E2E2E2E2E2E2E2E2E2E2E2E2E2E2E2E2E2E2E2E2DCE2E2E22DE2E2E2E2E2E2E2E2E2E2E2E2E2E2E2E2E2E2E2E2E2E2E2E2E2E2E2E2E2E2E2E2E2E2E2E2E2E2E2E2E2E2E2E2E2E2E2E2E2E2E2E2E2E2E2E2E2E2E2E2E2E2E2E2E2E2E2E2E2E2E2E2E2E2E2E2E2E2E2E2E22DE2E2E2DCE2E2E2E2E2E2E2E2E2E2E2E2
310
E2E2E2E2E2E2E2E2E2E2E2E2E2E2E2E2E2E2E2E2E2E2E2E2E2E2E2E2E2E2E2E2E2E2E2E2E2E2E2E2E2E2E2E2E2E2E2E2E2E2E2E2E2E2E2E2E2E2E2E2E2E2E2E2E2E2E2E2E2E2E2E2E2E2E2E2E2E2E2E2E2E2E2E2E2E2E2E2E2E2E2E2E2E2E2E2E2E2E2E2E2E2E2E2E2E2E2E2E2E2E2E2E2E2E2E2E2E2E2E2E2E2E2E2E2E2E2
310
E2E2E2E2E2E2E2E2E2E2E2E2E2E2E2E2E2E2E2E2E2E2E2E2E2E2DCE2E2E22DE2E2E2E2E2E2E2E2E2E2E2E2E2E2E2E2E2E2E2E2E2E2E2E2E2E2E2E2E2E2E2E2E2E2E2E2E2E2E2E2E2E2E2E2E2E2E2E2E2E2E2E2E2E2E2E2E2E2E2E2E2E2E2E2E2E2E2E2E2E2E2E2E2E2E2E2E2E2E2E2E22DE2E2E2DCE2E2E2E2E2E2E2E2E2E2
310
E2E2E2E2E2E2E2E2E2E2E2E2E2E2E2E2E2E2E2E2E2E2E2E2E2E2E2E2E2E2E2E2E2E2E2E2E2E2E2E2E2E2E2E2E2E2E2E2E2E2E2E2E2E2E2E2E2E2E2E2E2E2E2E2E2E2E2E2E2E2E2E2E2E2E2E2E2E2E2E2E2E2E2E2E2E2E2E2E2E2E2E2E2E2E2E2E2E2E2E2E2E2E2E2E2E2E2E2E2E2E2E2E2E2E2E2E2E2E2E2E2E2E2E2E2E2E2
310
E2E2E2E2E2E2E2E2E2E2E2E2E2E2E2E2E2E2E2E2E2E2E2E2E2E2E2E2DCE2E2E22DE2E2E2E2E2E2E2E2E2E2E2E2E2E2E2E2E2E2E2E2E2E2E2E2E2E2E2E2E2E2E2E2E2E2E2E2E2E2E2E2E2E2E2E2E2E2E2E2E2E2E2E2E2E2E2E2E2E2E2E2E2E2E2E2E2E2E2E2E2E2E2E2E2E2E2E2E2E2E2E2E22DE2E2E2DCE2E2E2E2E2E2E2E2
310
E2E2E2E2E2E2E2E2E2E2E2E2E2E2E2E2E2E2E2E2E2E2E2E2E2E2E2E2E2E2E2E2E2E2E2E2E2E2E2E2E2E2E2E2E2E2E2E2E2E2E2E2E2E2E2E2E2E2E2E2E2E2E2E2E2E2E2E2E2E2E2E2E2E2E2E2E2E2E2E2E2E2E2E2E2E2E2E2E2E2E2E2E2E2E2E2E2E2E2E2E2E2E2E2E2E2E2E2E2E2E2E2E2E2E2E2E2E2E2E2E2E2E2E2E2E2E2
310
E2E2E2E2E2E2E2E2E2E2E2E2E2E2E2E2E2E2E2E2E2E2E2E2E2E2E2E2E2E2DCE2E2E22DE2E2E2E2E2E2E2E2E2E2E2E2E2E2E2E2E2E2E2E2E2E2E2E2E2E2E2E2E2E2E2E2E2E2E2E2E2E2E2E2E2E2E2E2E2E2E2E2E2E2E2E2E2E2E2E2E2E2E2E2E2E2E2E2E2E2E2E2E2E2E2E2E2E2E2E2E2E2E2E2E22DE2E2E2DCE2E2E2E2E2E2
310
E2E2E2E2E2E2E2E2E2E2E2E2E2E2E2E2E2E2E2E2E2E2E2E2E2E2E2E2E2E2E2E2E2E2E2E2E2E2E2E2E2E2E2E2E2E2E2E2E2E2E2E2E2E2E2E2E2E2E2E2E2E2E2E2E2E2E2E2E2E2E2E2E2C3E2E2E2E2E2E2E2E2E2E2E2E2C3E2E2E2E2E2E2E2E2E2E2C3E2E2E2E2E2E2E2C3E2E2E2E2E2E2E2E2E2E2E2E2E2E2E2E2E2E2E2E2E2
310
E2E2E2E2E2E2E2E2E2E2E2E2E2E2E2E2E2E2E2E2E2E2E2E2E2E2E2E2E2E2E2E2DCE2E2E22DE2E2E2E2E2E2E2E2E2E2E2E2E2E2E2E2E2E2E2E2E2E2E2E2E2E2E2E2E2E2E2E2E2E2E2E2E2E2E2E2E2E2E2E2E2E2E2E2E2E2E2E2E2E2E2E2E2E2E2E2E2E2E2E2E2E2E2E2E2E2E2E2E2E2E2E2E2E2E2E2E22DE2E2E2DCE2E2E2E2
310
E2E2E2E2E2E2E2E2E2E2E2E2E2E2E2E2E2E2E2E2E2E2E2E2E2E2E2E2E2E2E2E2E2E2E2E2E2E2E2E2E2E2E2E2E2E2E2E2E2E2E2E2E2E2E2E2E2E2E2F5F5F5F5F5F5F5F5F5E2E2E2E2E2E2E2C3C3C3C3C32D2D2D2DC3C3C3C3C3E2E2E2E2E2E2E2E2E2E2C3C3C32D2D2DC3C3C3E2E2E2E2E2E2E2E2E2E2E2E2E2E2E2E2E2E2E2
310
E2E2E2E2E2E2E2E2E2E2E2E2E2E2E2E2E2E2E2E2E2E2E2E2E2E2E2E2E2E2E2E2E2E2DCE2E2E22DE2E2E2E2E2E2E2E2E2E2E2E2E2E2E2E2E2E2E2E2E2E2E2E2E2E2E2E2E2E2E2E2E2E2E2E2E2E2E2E2E2E2E2E2E2E2E2E2E2E2E2E2E2E2E2E2E2E2E2E2E2E2E2E2E2E2E2E2E2E2E2E2E2E2E2E2E2E2E2E2E22DE2E2E2DCE2E2
310
E2E2E2E2E2E2E2E2E2E2E2E2E2E2E2E2E2E2E2E2E2E2E2E2E2E2E2E2E2E2E2E2E2E2E2E2E2E2E2E2E2E2E2E2E2E2E2E2E2E2E2E2E2E2E2E2E2E2E2E2E2F5F5F5F5F5F5F5F5E2F5E2E2E2E2E2E2C3E2E2E2E22D2D2D2DE2E2E2E2C3E2E2E2E2E2E2E2E2E2E2C3E2E22D2D2DE2E2C3E2E2E2E2E2E2E2E2E2E2E2E2E2E2E2E2E2
310
E2E2E2E2E2E2E2E2E2E2E2E2E2E2E2E2E2E2E2E2E2E2E2E2E2E2E2E2E2E2E2E2E2E2E2E2DCE2E2E22DE2E2E2E2E2E2E2E2E2E2E2E2E2E2E2E2E2E2E2E2E2E2E2E2E2E2E2E2E2E2E2E2E2E2E2E2E2E2E2E2E2E2E2E2E2E2E2E2E2E2E2E2E2E2E2E2E2E2E2E2E2E2E2E2E2E2E2E2E2E2E2E2E2E2E2E2E2E2E2E2E22DE2E2E2DC
310
E2E2E2E2E2E2E2E2E2E2E2E2E2E2E2E2E2E2E2E2E2E2E2E2E2E2E2E2E2E2E2E2E2E2E2E2E2E2E2E2E2E2E2E2E2E2E2E2E2E2E2E2E2E2E2E2E2E2E2E2E2E2E2F5F5F5F5F5F5F5F5E2F5E2E2E2E2E2E2C3E2E2E2E2E22D2D2DE2E2E2E2C3E2E2E2E2E2E2E2E2E2E2C3E2E22D2D2DE2E2C3E2E2E2E2E2E2E2E2E2E2E2E2E2E2E2
310
E2E2E2E2E2E2E2E2E2E2E2E2E2E2E2E2E2E2E2E2E2E2E2E2E2E2E2E2E2E2E2E2E2E2E2E2E2E2DCE2E2E22DE2E2E2E2E2E2E2E2E2E2E2E2E2E2E2E2E2E2E2E2E2E2E2E2E2E2E2E2E2E2E2E2E2E2E2E2E2E2E2E2E2E2E2E2E2E2E2E2E2E2E2E2E2E2E2E2E2E2E2E2E2E2E2E2E2E2E2E2E2E2E2E2E2E2E2E2E2E2E2E2E22DE2E2
310
E2DCE2E2E2E2E2E2E2E2E2E2E2E2E2E2E2E2E2E2E2E2E2E2E2E2E2E2E2E2E2E2E2E2E2E2E2E2E2E2E2E2E2E2E2E2E2E2E2E2E2E2E2E2E2E2E2E2E2E2E2E2E2E2E2E2E2E2E2E2E2E2E2E2E2F5E2E2E2E2E2C3E2E2E2E2E2E2E2E2E2E2E2E2C3E2E2E2E2E2E2E2E2E2E2C3E2E2E2E2E2E2E2C3E2E2E2E2E2E2E2E2E2E2E2E2E2
310
E2E2E2E2E2E2E2E2E2E2E2E2E2E2E2E2E2E2E2E2E2E2E2E2E2E2E2E2E2E2E2E2E2E2E2E2E2E2E2E2DCE2E2E22DE2E2E2E2E2E2E2E2E2E2E2E2E2E2E2E2E2E2E2E2E2E2E2E2E2E2E2E2E2E2E2E2E2E2E2E2E2E2E2E2E2E2E2E2E2E2E2E2E2E2E2E2E2E2E2E2E2E2E2E2E2E2E2E2E2E2E2E2E2E2E2E2E2E2E2E2E2E2E2E2E22D
310
E2E2E2DCE2E2E2E2E2E2E2E2E2E2E2E2E2E2E2E2E2E2E2E2E2E2E2E2E2E2E2E2E2E2E2E2E2E2E2E2E2E2E2E2E2E2E2E2E2E2E2E2E2E2E2E2E2E2E2E2E2E2E2E2E2E2E2E2E2E2E2E2E2E2E2E2E2E2F5E2E2E2E2C3E2E2E2E2E2E2E2E2E2E2E2E2C3E2E2E2E2E2E2E2E2E2E2C3E2E2E2E2E2E2E2C3E2E2E2E2E2E2E2E2E2E2E2
310
E2E2E2E2E2E2E2E2E2E2E2E2E2E2E2E2E2E2E2E2E2E2E2E2E2E2E2E2E2E2E2E2E2E2E2E2E2E2E2E2E2E2DCE2E2E22DE2E2E2E2E2E2E2E2E2E2E2E2E2E2E2E2E2E2E2E2E2E2E2E2E2E2E2E2E2E2E2E2E2E2E2E2E2E2E2E2E2E2E2E2E2E2E2E2E2E2E2E2E2E2E2E2E2E2E2E2E2E2E2E2E2E2E2E2E2E2E2E2E2E2E2E2E2E2E2E2
310
E22DE2E2E2DCE2E2E2E2E2E2E2E2E2E2E2E2E2E2E2E2E2E2E2E2E2E2E2E2E2E2E2E2E2E2E2E2E2E2E2E2E2E2E2E2E2E2E2E2E2E2E2E2E2E2E2E2E2E2E2E2E2E2E2E2E2E2E2E2E2E2E2E2E2C3C3C3C3C3F5C3C3C3C3C3C3F5F5F5F5F5F5F5F5F5F5F5C3E2E2E2E2E2E2E2E2E2E2C3F5F5F5F5F5F5F5C3E2E2E2E2E2E2E2E2E2
310
E2E2E2E2E2E2E2E2E2E2E2E2E2E2E2E2E2E2E2E2E2E2E2E2E2E2E2E2E2E2E2E2E2E2E2E2E2E2E2E2E2E2E2E2DCE2E2E22DE2E2E2E2E2E2E2E2E2E2E2E2E2E2E2E2E2E2E2E2E2E2E2E2E2E2E2E2E2E2E2E2E2E2E2E2E2E2E2E2E2E2E2E2E2E2E2E2E2E2E2E2E2E2E2E2E2E2E2E2E2E2E2E2E2E2E2E2E2E2E2E2E2E2E2E2E2E2
310
E2E2E22DE2E2E2DCE2E2E2E2E2E2E2E2E2E2E2E2E2E2E2E2E2E2E2E2E2E2E2E2E2E2E2E2E2E2E2E2E2E2E2E2E2E2E2E2E2E2E2E2E2E2E2E2E2E2E2E2E2E2E2E2E2E2E2E2E2E2E2E2E2E2E2E2E2C3E2E2E2E2E2F5E2E2E2F5E2F5F5E2E2E2E2E2E2E2E2E2F5E2E2E2E2E2E2E2E2E2E2F5E2E2E2E2E2E2F5F5E2E2E2E2E2E2E2
310
E2E2E2E2E2E2E2E2E2E2E2E2E2E2E2E2E2E2E2E2E2E2E2E2E2E2E2E2E2E2E2E2E2E2E2E2E2E2E2E2E2E2E2E2E2E2DCE2E2E22DE2E2E2E2E2E2E2E2E2E2E2E2E2E2E2E2E2E2E2E2E2E2E2E2E2E2E2E2E2E2E2E2E2E2E2E2E2E2E2E2E2E2E2E2E2E2E2E2E2E2E2E2E2E2E2E2E2E2E2E2E2E2E2E2E2E2E2E2E2E2E2E2E2E2E2E2
310
E2E2E2E2E22DE2E2E2DCE2E2E2E2E2E2E2E2E2E2E2E2E2E2E2E2E2E2E2E2E2E2E2E2E2E2E2E2E2E2E2E2E2E2E2E2E2E2E2E2E2E2E2E2E2E2E2E2E2E2E2E2E2E2E2E2E2E2F5F5F5F5F5F5F5F5E2E2E2C3E2E2E2E2E2F5E2E2E2F5E2F5F5E2E2E2E2E2E2E2E2E2F5E2E2E2E2E2E2E2E2E2E2F5E2E2E2E2E2E2F5F5E2E2E2E2E2
310
E2E2E2E2E2E2E2E2E2E2E2E2E2E2E2E2E2E2E2E2E2E2E2E2E2E2E2E2E2E2E2E2E2E2E2E2E2E2E2E2E2E2E2E2E2E2E2E2DCE2E2E22DE2E2E2E2E2E2E2E2E2E2E2E2E2E2E2E2E2E2E2E2E2E2E2E2E2E2E2E2E2E2E2E2E2E2E2E2E2E2E2E2E2E2E2E2E2E2E2E2E2E2E2E2E2E2E2E2E2E2E2E2E2E2E2E2E2E2E2E2E2E2E2E2E2E2
310
E2E2E2E2E2E2E22DE2E2E2DCE2E2E2E2E2E2E2E2E2E2E2E2E2E2E2E2E2E2E2E2E2E2E2E2E2E2E2E2E2E2E2E2E2E2E2E2E2E2E2E2E2E2E2E2E2E2E2E2E2E2E2E2E2E2E2E2E2E2F5F5F5F5F5F5F5E2F5F5E2C3E2E2E2E2E2DCF5DCDCDCE2E2E2E2E2E2E2E2E2E2E2E2F5E2E2E2E2E2E2E2E2E2E2F5E2E2E2E2E2E2F5DCDCE2E2
310
E2E2E2E2E2E2E2E2E2E2E2E2E2E2E2E2E2E2E2E2E2E2E2E2E2E2E2E2E2E2E2E2E2E2E2E2E2E2E2E2E2E2E2E2E2E2E2E2E2E2DCE2E2E22DE2E2E2E2E2E2E2E2E2E2E2E2E2E2E2E2E2E2E2E2E2E2E2E2E2E2E2E2E2E2E2E2E2E2E2E2E2E2E2E2E2E2E2E2E2E2E2E2E2E2E2E2E2E2E2E2E2E2E2E2E2E2E2E2E2E2E2E2E2E2E2E2
310
E2E2E2E2E2E2E2E2E22DE2E2E2DCE2E2E2E2E2E2E2E2E2E2E2E2E2E2E2E2E2E2E2E2E2E2E2E2E2E2E2E2E2E2E2E2E2E2E2E2E2E2E2E2E2E2E2E2E2E2E2E2E2E2E2E2E2E2E2E2E2E2F5F5F5F5F5F5F5F5E2E2F5C3E2E2E2E2E2DCDCE2E2F5E2E2E2E2E2E2E2E2E2E2E2E2F5E2E2E2E2E2E2E2E2E2E2F5E2E2E2E2E2E2F5F5DC
310
E2E2E2E2E2E2E2E2E2E2E2E2E2E2E2E2E2E2E2E2E2E2E2E2E2E2E2E2E2E2E2E2E2E2E2E2E2E2E2E2E2E2E2E2E2E2E2E2E2E2E2E2DCE2E2E22DE2E2E2E2E2E2E2E2E2E2E2E2E2E2E2E2E2E2E2E2E2E2E2E2E2E2E2E2E2E2E2E2E2E2E2E2E2E2E2E2E2E2E2E2E2E2E2E2E2E2E2E2E2E2E2E2E2E2E2E2E2E2E2E2E2E2E2E2E2E2
310
E2E2E2E2E2E2E2E2E2E2E22DE2E2E2DCE2E2E2E2E2E2E2E2E2E2E2E2E2E2E2E2E2E2E2E2E2E2E2E2E2E2E2E2E2E2E2E2E2E2E2E2E2E2E2E2E2E2E2E2E2E2E2E2E2E2E2E2E2E2E2E2E2E2E2E2E2E2E2E2E2E2E2E2E2F5E2E2E2E2E2DCDCE2E2F5E2E2E2F5F5F5F5F5F5F5E2E2F5E2E2E2E2E2E2E2E2E2E2F5E2E2E2E2E2E2F5
310
F5DCE2E2E2E2E2E2E2E2E2E2E2E2E2E2E2E2E2E2E2E2E2E2E2E2E2E2E2E2E2E2E2E2E2E2E2E2E2E2E2E2E2E2E2E2E2E2E2E2E2E2E2E2DCE2E2E22DE2E2E2E2E2E2E2E2E2E2E2E2E2E2E2E2E2E2E2E2E2E2E2E2E2E2E2E2E2E2E2E2E2E2E2E2E2E2E2E2E2E2E2E2E2E2E2E2E2E2E2E2E2E2E2E2E2E2E2E2E2E2E2E2E2E2E2E2
310
E2E2E2E2E2E2E2E2E2E2E2E2E22DE2E2E2DCE2E2E2E2E2E2E2E2E2E2E2E2E2E2E2E2E2C3C3C3C3C3C32D2D2DC3C3C3C3C3C3C3E2E2E2E2E2E2E2E2E2E2C3C3C3C32DC3C3C3E2E2E2E2E2E2E2E2E2E2E2E2E2E2E2E2E2E2C3F5F5E2E2E2F5DCE2E2F5E2E2E2F5E2E2E2E2E2F5E2E2F5E2E2E2E2E2E2E2E2E2E2F5E2E2E2E2E2
310
E2F5F5DCE2E2E2E2E2E2E2E2E2E2E2E2E2E2E2E2E2E2E2E2E2E2E2E2E2E2E2E2E2E2E2E2E2E2E2E2E2E2E2E2E2E2E2E2E2E2E2E2E2E2E2E2DCE2E2E22DE2E2E2E2E2E2E2E2E2E2E2E2E2E2E2E2E2E2E2E2E2E2E2E2E2E2E2E2E2E2E2E2E2E2E2E2E2E2E2E2E2E2E2E2E2E2E2E2E2E2E2E2E2E2E2E2E2E2E2E2E2E2E2E2E2E2
310
E2E2E2E2E2E2E2E2E2E2E2E2E2E2E22DE2E2E2DCE2E2E2E2E2E2E2E2E2E2E2E2E2E2E2E2E2C3E2E2E2E2E22D2D2D2DE2E2E2E2E2C3E2E2E2E2E2E2E2E2E2E2C32D2D2D2D2D2DC3E2E2E2E2E2E2E2E2E2E2E2E2E2E2E2E2E22DC3E2E2F5F5F5F5DCF5F5F5E2E2E2F5E2E2E2E2E2F5E2E2F5E2E2E2E2E2E2E2E2E2E2F5E2E2E2
310
E2E2E2F5F5F5DCE2E2E2E2E2E2E2E2E2E2E2E2E2E2E2E2E2E2E2E2E2E2E2E2E2E2E2E2E2E2E2E2E2E2E2E2E2E2E2E2E2E2E2E2E2E2E2E2E2E2E2DCE2E2E22DE2E2E2E2E2E2E2E2E2E2E2E2E2E2E2E2E2E2E2E2E2E2E2E2E2E2E2E2E2E2E2E2E2E2E2E2E2E2E2E2E2E2E2E2E2E2E2E2E2E2E2E2E2E2E2E2E2E2E2E2E2E2E2E2
310
E2E2E2E2E2E2E2E2E2E2E2E2E2E2E2E2E22DE2E2E2DCE2E2E2E2E2E2E2E2E2E2E2E2E2E2E2E2E2C3E2E2E2E2E22D2D2D2DE2E2E2E2E2C3E2E2E2E2E2E2E2E2E2E2C32D2D2DE22D2DC3E2E2E2E2E2E2E2E2E2E2E2E2E2E2E2E22D2D2DE2E2E2F5F5F5DCF5F5F5E2E2E2F5E2E2E2E2E2F5E2E2F5E2E2E2E2E2E2E2E2E2E2F5E2
310
E2E2E2E2E2F5F5F5DCE2E2E2E2E2E2E2E2E2E2E2E2E2E2E2E2E2E2E2E2E2E2E2E2E2E2E2E2E2E2E2E2E2E2E2E2E2E2E2E2E2E2E2E2E2E2E2E2E2E2E2DCE2E2E22DE2E2E2E2E2E2E2E2E2E2E2E2E2E2E2E2E2E2E2E2E2E2E2E2E2E2E2E2E2E2E2E2E2E2E2E2E2E2E2E2E2E2E2E2E2E2E2E2E2E2E2E2E2E2E2E2E2E2E2E2E2E2
310
E2E2E2E2E2E2E2E2E2E2E2E2E2E2E2E2E2E2E22DE2E2E2DCE2E2E2E2E2E2E2E2E2E2E2E2E2E2E2E2E2C3E2E2E2E2E2E2E2E2E2E2E2E2E2E2C3E2E2E2E2E2E2E2E2E2E2C3E2E2E2E2E2E2C3E2E2E2E2E2E2E2E2E2E2E2E2E2E2E2E22D2D2DE2E2E2F5F5F5DCF5F5F5E2E2E2F5E2E2E2E2E2F5E2E2F5E2E2E2E2E2E2E2E2E2E2
310
F5E2E2E2E2E2E2F5F5F5DCE2E2E2E2E2E2E2E2E2E2E2E2E2E2E2E2E2E2E2E2E2E2E2E2E2E2E2E2E2E2E2E2E2E2E2E2E2E2E2E2E2E2E2E2E2E2E2E2E2E2E2DCE2E2E22DE2E2E2E2E2E2E2E2E2E2E2E2E2E2E2E2E2E2E2E2E2E2E2E2E2E2E2E2E2E2E2E2E2E2E2E2E2E2E2E2E2E2E2E2E2E2E2E2E2E2E2E2E2E2E2E2E2E2E2E2
310
E2E2E2E2E2E2E2E2E2E2E2E2E2E2E2E2E2E2E2E2E22DE2E2E2DCE2E2E2E2E2E2E2E2E2E2E2E2E2E2E2E2E2C3E2E2E2E2E2E2E2E2E2E2E2E2E2E2C3E2E2E2E2E2E2E2E2E2E2C3E2E2E2E2E2E2C3E2E2E2E2E2E2E2E2E2E2E2E2E2E2E2E2E2E2C3E2E2E2E2E2DCDCE2E2F5E2E2E2F5E2E2E2E2E2F5E2E2F5E2E2E2E2E2E2E2E2
310
E2E2F5E2E2E2E2E2E2F5F5DCE2E2E2E2E2E2E2E2E2E2E2E2E2E2E2E2E2E2E2E2E2E2E2E2E2E2E2E2E2E2E2E2E2E2E2E2E2E2E2E2E2E2E2E2E2E2E2E2E2E2E2E2DCE2E2E22DE2E2E2E2E2E2E2E2E2E2E2E2E2E2E2E2E2E2E2E2E2E2E2E2E2E2E2E2E2E2E2E2E2E2E2E2E2E2E2E2E2E2E2E2E2E2E2E2E2E2E2E2E2E2E2E2E2E2
310
E2E2E2E2E2E2E2E2E2E2E2E2E2E2E2E2E2E2E2E2E2E2E22DE2E2E2DCE2E2E2E2E2E2E2E2E2E2E2E2E2E2E2E2E2C3E2E2E2E2E2E2E2E2E2E2E2E2E2E2C3E2E2E2E2E2E2E2E2E2E2C3E2E2E2E2E2E2C3E2E2E2E2E2E2E2E2E2E2E2E2E2E2E2E2E2E2C3E2E2E2E2E2DCDCE2E2F5E2E2E2F5F5F5F5F5F5F5E2E2F5E2E2E2E2E2E2
310
E2E2E2E2F5E2E2E2E2E2E2F5F5DCF5F5F5F5F5F5F5F5F5F5F5F5F5F5F5F5F5F5F5F5E2E2E2E2E2E2E2E2E2E2E2E2E2E2E2E2E2E2E2E2E2E2E2E2E2E2E2E2E2E2E2E2DCE2E2E22DE2E2E2E2E2E2E2E2E2E2E2E2E2E2E2E2E2E2E2E2E2E2E2E2E2E2E2E2E2E2E2E2E2E2E2E2E2E2E2E2E2E2E2E2E2E2E2E2E2E2E2E2E2E2E2E2
310
E2E2E2E2E2E2E2E2E2E2E2E2E2E2E2E2E2E2E2E2E2E2E2E2E22DE2E2E2DCE2E2E2E2E2E2E2E2E2C3C3C3C3C3C3C3C3C3C3F5F5F5F5F5F5F5F5F5F5F5F5F5C3E2E2E2E2E2E2E2E2E2E2C3F5F5F5F5F5F5C3E2E2E2E2E2E2E2E2E2E2E2E2E2E2E2E2E2E2C3E2E2E2E2E2DCDCE2E2F5E2E2E2E2E2E2E2E2E2E2E2E2F5E2E2E2E2
310
E2E2E2E2E2E2F5E2E2E2E2E2E2F5F5F5E2E2F5F5F5F5F5F5F5F5F5F5F5F5F5F5F5F5F5F5E2E2E2E2E2E2E2E2E2E2E2E2E2E2E2E2E2E2E2E2E2E2E2E2E2E2E2E2E2E2E2E2DCE2E2E22DE2E2E2E2E2E2E2E2E2E2E2E2E2E2E2E2E2E2E2E2E2E2E2E2E2E2E2E2E2E2E2E2E2E2E2E2E2E2E2E2E2E2E2E2E2E2E2E2E2E2E2E2E2E2
310
E2E2E2E2E2E2E2E2E2E2E2E2E2E2E2E2E2E2E2E2E2E2E2E2E2E2E22DE2E2E2DCE2E2E2E2E2E2E2E2E2E2C3E2E2E2E2E2E2C3E2E2E2E2E2E2E2E2E2E2E2E2E2F5C3E2E2E2E2E2E2E2E2E2E2F5E2F5F5E2F5E2C3E2E2E2E2E2E2E2E2E2E2E2E2E2E2E2E2E2E2C3E2E2E2E2E2DCDCDCDCDCE2E2E2E2E2E2E2E2E2E2E2E2F5E2E2
310
E2E2E2E2E2E2E2E2F5E2E2E2F5E2F5F5DCDCE2E2E2E2E2E2E2E2E2E2E2E2E2E2E2F5E2E2E2E2E2E2E2E2E2E2E2E2E2E2E2E2E2E2E2E2E2E2E2E2E2E2E2E2E2E2E2E2E2E2E2E2DCE2E2E22DE2E2E2E2E2E2E2E2E2E2E2E2E2E2E2E2E2E2E2E2E2E2E2E2E2E2E2E2E2E2E2E2E2E2E2E2E2E2E2E2E2E2E2E2E2E2E2E2E2E2E2E2
310
E2E2E2E2E2E2E2E2E2E2E2E2E2E2E2E2E2E2E2E2E2E2E2E2E2E2E2E2E22DE2E2E2DCE2E2E2E2E2E2E2E2E2E2C3E2E2E2E2E2E2F5E2E2E2E2E2E2E2E2E2E2E2E2E2F5F5E2E2E2E2E2E2E2E2E2E2F5E2F5F5E2F5E2F5E2E2E2E2E2E2E2E2E2E2E2E2E2E2E2E2E2E2C3E2E2E2E2E2E2E2E2E2F5E2E2E2E2E2E2E2E2E2E2E2E2F5
310
E2E2E2E2E2E2E2E2E2E2F5E2E2F5F5F5E2F5F5E2E2E2E2E2E2E2E2E2E2E2E2E2E2E2E2E2E2E2E2E2E2E2E2E2E2E2E2E2E2E2E2E2E2E2E2E2E2E2E2E2E2E2E2E2E2E2E2E2E2E2E2E2DCE2E2E22DE2E2E2E2E2E2E2E2E2E2E2E2E2E2E2E2E2E2E2E2E2E2E2E2E2E2E2E2E2E2E2E2E2E2E2E2E2E2E2E2E2E2E2E2E2E2E2E2E2E2
310
E2E2E2E2E2E2E2E2E2E2E2E2E2E2E2E2E2E2E2E2E2E2E2E2E2E2E2E2E2E2E22DE2E2E2DCE2E2E2E2E2E2E2E2E2E2C3E2E2E2E2E2E2F5E2E2E2E2E2E2E2E2E2E2E2E2E2F5F5E2E2E2E2E2E2E2E2E2E2F5E2E2F5E2F5E2F5E2E2E2E2E2E2E2E2E2E2E2E2E2E2E2E2E2E2C3E2E2E2E2E2E2E2E2E2F5E2E2E2E2E2E2E2E2E2E2E2
310
E2F5E2E2E2E2E2E2E2E2E2E2F5E2E2F5F5E2E2F5F5E2E2E2E2E2E2E2E2E2E2E2E2E2E2E2E2E2E2E2E2E2E2E2E2E2E2E2E2E2E2E2E2E2E2E2E2E2E2E2E2E2E2E2E2E2E2E2E2E2E2E2E2E2DCE2E2E22DE2E2E2E2E2E2E2E2E2E2E2E2E2E2E2E2E2E2E2E2E2E2E2E2E2E2E2E2E2E2E2E2E2E2E2E2E2E2E2E2E2E2E2E2E2E2E2E2
310
E2E2E2E2E2E2E2E2E2E2E2E2E2E2E2E2E2E2E2E2E2E2E2E2E2E2E2E2E2E2E2E2E22DE2E2E2DCE2E2E2E2E2E2E2E2E2E2C3E2E2E2E2E2E2F5F5F5F5F5F5F5F5F5F5F5F5F5F5F5F5E2E2E2E2E2E2E2E2E2E2F5E2E2F5E2F5E2F5E2E2E2E2E2E2E2E2E2E2E2E2E2E2E2E2E2E2C3C3C3C3C3C3C3C3C3C3C3C3F5F5F5F5F5F5F5F5
310
F5F5F5F5E2E2E2E2E2E2E2E2E2E2F5F5F5F5F5F5F5F5F5E2E2E2E2E2E2E2E2E2E2E2E2E2E2E2E2E2E2E2E2E2E2E2E2E2E2E2E2E2E2E2E2E2E2E2E2E2E2E2E2E2E2E2E2E2E2E2E2E2E2E2E2E2DCE2E2E22DE2E2E2E2E2E2E2E2E2E2E2E2E2E2E2E2E2E2E2E2E2E2E2E2E2E2E2E2E2E2E2E2E2E2E2E2E2E2E2E2E2E2E2E2E2E2
310
E2E2E2E2E2E2E2E2E2E2E2E2E2E2E2E2E2E2E2E2E2E2E2E2E2E2E2E2E2E2E2E2E2E2E22DE2E2E2DCE2E2E2E2E2E2E2E2E2E2C3E2E2E2E2E2E2F5F5E2E2E2E2E2E2E2E2E2E2E2F5F5F5E2E2E2E2E2E2E2E2E2E2F5E2E2F5E2F5E2F5E2E2E2E2E2E2E2E2E2E2E2E2E2E2E2E2E2E2C3E2E2E2E2E2E2E2E2E2E2E2E2E2E2E2F5E2
310
F5E2E2E2E2E2E2E2E2E2E2E2E2E2E2E2E2E2E2E2E2E2F5F5E2E2E2E2E2E2E2E2E2E2E2E2E2E2E2E2E2E2E2E2E2E2E2E2E2E2E2E2E2E2E2E2E2E2E2E2E2E2E2E2E2E2E2E2E2E2E2E2E2E2E2E2E2E2DCE2E2E22DE2E2E2E2E2E2E2E2E2E2E2E2E2E2E2E2E2E2E2E2E2E2E2E2E2E2E2E2E2E2E2E2E2E2E2E2E2E2E2E2E2E2E2E2
310
E2E2E2E2E2E2E2E2E2E2E2E2E2E2E2E2E2E2E2E2E2E2E2E2E2E2E2E2E2E2E2E2E2E2E2E2E22DE2E2E2DCE2E2E2E2E2E2E2E2E2E2C3E2E2E2E2E2E2F5F5E2E2E2E2E2E2E2E2E2E2E2F5F5F5E2E2E2E2E2E2E2E2E2E2F5E2E2F5E2F5E2F5E2E2E2E2E2E2E2E2E2E2E2E2E2E2E2E2E2E2C3E2E2E2E2E2E2E2E2E2E2E2E2E2E2E2
310
F5E2F5E2E2E2E2E2E2E2E2E2E2E2E2E2E2E2E2E2E2E2E2E2F5F5E2E2E2E2E2E2E2E2E2E2E2E2E2F5F5F5F5F5F5F5F5F5F5F5F5F5F5F5F5F5F5F5F5F5F5F5F5F5F5F5F5F5F5F5F5F5F5F5F5F5F5F5F5F5DCE2E2E22DE2E2E2E2E2E2E2E2E2E2E2E2E2E2E2E2E2E2E2E2E2E2E2E2E2E2E2E2E2E2E2E2E2E2E2E2E2E2E2E2E2E2
310
E2E2E2E2E2E2E2E2E2E2E2E2E2E2E2E2E2E2E2E2E2E2E2E2E2E2E2E2E2E2E2E2E2E2E2E2E2E2E22DE2E2E2DCE2E2E2E2E2E2E2E2E2E2C3E2E2E2E2E2E2F5F5E2E2E2E2E2E2E2E2E2E2E2F5F5F5E2E2E2E2E2E2E2E2E2E2F5E2E2F5E2F5E2F5E2E2E2E2E2E2E2E2E2E2E2E2E2E2E2E2E2E2C3E2E2E2E2E2E2E2E2E2E2E2E2E2
310
E2E2F5E2F5E2E2E2E2E2E2E2E2E2E2E2E2E2E2E2E2E2E2E2E2E2F5F5E2E2E2E2E2E2E2E2E2E2E2E2E2F5F5F5F5F5F5F5F5E2E2E2E2E2E2E2E2F5F5F5F5F5F5F5F5E2E2E2E2E2E2E2E2E2E2E2E2E2E2E2E2E2DCE2E2E22DE2E2E2E2E2E2E2E2E2E2E2E2E2E2E2E2E2E2E2E2E2E2E2E2E2E2E2E2E2E2E2E2E2E2E2E2E2E2E2E2
310
E2E2E2E2E2E2E2E2E2E2E2E2E2E2E2E2E2E2E2E2E2E2E2E2E2E2E2E2E2E2E2E2E2E2E2E2E2E2E2E2E22DE2E2E2DCE2E2E2E2E2E2E2E2E2E2C3E2E2E2E2E2E2F5F5E2E2E2E2E2E2E2E2E2E2E2F5F5F5E2E2E2E2E2E2E2E2E2E2F5E2E2F5E2F5E2F5E2E2E2E2E2E2E2E2E2E2E2E2E2E2E2E2E2E2C3E2E2E2E2E2E2E2E2E2E2E2
310
E2E2E2E2F5E2F5E2E2E2E2E2E2E2E2E2E2E2E2E2E2E2E2E2E2E2E2E2F5F5E2E2E2E2E2E2E2E2E2E2E2E2E2F5F5F5F5F5F5F5F5F5F5F5F5F5F5F5F5F5F5F5F5F5F5F5F5F5F5F5F5F5F5F5F5F5F5F5F5F5F5F5F5F5DCE2E2E22DE2E2E2E2E2E2E2E2E2E2E2E2E2E2E2E2E2E2E2E2E2E2E2E2E2E2E2E2E2E2E2E2E2E2E2E2E2E2
310
E2E2E2E2E2E2E2E2E2E2E2E2E2E2E2E2E2E2E2E2E2E2E2E2E2E2E2E2E2E2E2E2E2E2E2E2E2E2E2E2E2E2E22DE2E2E2DCE2E2E2E2E2E2E2E2E2E2C3E2E2E2E2E2E2F5F5E2E2E2E2E2E2E2E2E2E2E2F5F5F5E2E2E2E2E2E2E2E2E2E2F5E2E2F5E2F5E2F5E2E2E2E2E2E2E2E2E2E2E2E2E2E2E2E2E2E2C3E2E2E2E2E2E2E2E2E2
310
E2E2E2E2E2E2F5E2F5E2E2E2E2E2E2E2E2E2E2E2E2E2E2E2E2E2E2E2E2E2F5F5E2E2E2E2E2E2E2E2E2E2E2E2E2E2E2E2E2E2E2E2E2E2E2E2E2E2E2E2E2F5F5F5F5F5F5F5F5F5F5F5F5F5F5F5E2E2E2E2E2E2E2E2E2E2DCE2E2E22DE2E2E2E2E2E2E2E2E2E2E2E2E2E2E2E2E2E2E2E2E2E2E2E2E2E2E2E2E2E2E2E2E2E2E2E2
310
E2E2E2E2E2E2E2E2E2E2E2E2E2E2E2E2E2E2E2E2E2E2E2E2E2E2E2E2E2E2E2E2E2E2E2E2E2E2E2E2E2E2E2E2E22DE2E2E2DCE2E2E2E2E2E2E2E2E2E2C3E2E2E2E2E2E2F5F5E2E2E2E2E2E2E2E2E2E2E2F5F5F5E2E2E2E2E2E2E2E2E2E2F5E2E2F5E2F5E2F5E2E2E2E2E2E2E2E2E2E2E2E2E2E2E2E2E2E2C3E2E2E2E2E2E2E2
310
E2E2E2E2E2E2E2E2F5E2F5E2E2E2E2E2E2E2E2E2E2E2E2E2E2E2E2E2E2E2E2E2F5F5E2E2E2E2E2E2E2E2E2E2E2E2E2F5F5F5F5F5F5F5F5F5F5F5F5F5F5F5F5F5F5F5F5F5F5F5F5F5F5F5F5F5F5F5F5F5F5F5F5F5F5F5F5F5DCE2E2E22DE2E2E2E2E2E2E2E2E2E2E2E2E2E2E2E2E2E2E2E2E2E2E2E2E2E2E2E2E2E2E2E2E2E2
310
E2E2E2E2E2E2E2E2E2E2E2E2E2E2E2E2E2E2E2E2E2E2E2E2E2E2E2E2E2E2E2E2E2E2E2E2E2E2E2E2E2E2E2E2E2E2E22DE2E2E2DCE2E2E2E2E2E2E2E2E2E2C3E2E2E2E2E2E2F5F5E2E2E2E2E2E2E2E2E2E2E2F5F5F5E2E2E2E2E2E2E2E2E2E2F5E2E2F5E2F5E2F5E2E2E2E2E2E2E2E2E2E2E2E2E2E2E2E2E2E2C3E2E2E2E2E2
310
E2E2E2E2E2E2E2E2E2E2F5E2F5E2E2E2E2E2E2E2E2E2E2E2E2E2E2E2E2E2E2E2E2E2F5F5E2E2E2E2E2E2E2E2E2E2E2E2E2F5F5F5F5F5F5F5F5F5F5F5F5F5F5F5E2E2E2E2E2E2E2E2E2E2E2E2E2E2E2E2E2E2E2E2E2E2E2E2E2E2DCE2E2E22DE2E2E2E2E2E2E2E2E2E2E2E2E2E2E2E2E2E2E2E2E2E2E2E2E2E2E2E2E2E2E2E2
310
E2E2E2E2E2E2E2E2E2E2E2E2E2E2E2E2E2E2E2E2E2E2E2E2E2E2E2E2E2E2E2E2E2E2E2E2E2E2E2E2E2E2E2E2E2E2E2E2E22DE2E2E2DCE2E2E2E2E2E2E2E2E2E2C3E2E2E2E2E2E2F5F5E2E2E2E2E2E2E2E2E2E2E2F5F5F5E2E2E2E2E2E2E2E2E2E2F5E2E2F5E2F5E2F5E2E2E2E2E2E2E2E2E2E2E2E2E2E2E2E2E2E2C3E2E2E2
310
E2E2E2E2E2E2E2E2E2E2E2E2F5E2F5E2E2E2E2E2E2E2E2E2E2E2E2E2E2E2E2E2E2E2E2E2F5F5E2E2E2E2E2E2E2E2E2E2E2E2E2F5F5F5F5F5F5F5F5F5F5F5F5F5F5F5F5F5F5F5F5F5F5F5F5F5F5F5F5F5F5F5F5F5F5F5F5F5F5F5F5F5DCE2E2E22DE2E2E2E2E2E2E2E2E2E2E2E2E2E2E2E2E2E2E2E2E2E2E2E2E2E2E2E2E2E2
310
E2E2E2E2E2E2E2E2E2E2E2E2E2E2E2E2E2E2E2E2E2E2E2E2E2E2E2E2E2E2E2E2E2E2E2E2E2E2E2E2E2E2E2E2E2E2E2E2E2E2E22DE2E2E2DCE2E2E2E2E2E2E2E2E2E2C3E2E2E2E2E2E2F5F5E2E2E2E2E2E2E2E2E2E2E2F5F5F5E2E2E2E2E2E2E2E2E2E2F5E2E2F5E2F5E2F5E2E2E2E2E2E2E2E2E2E2E2E2E2E2E2E2E2E2C3E2
310
E2E2E2E2E2E2E2E2E2E2E2E2E2E2F5E2F5E2E2E2E2E2E2E2E2E2E2E2E2E2E2E2E2E2E2E2E2E2F5F5E2E2E2E2E2E2E2E2E2E2E2E2E2F5F5F5F5F5F5F5F5F5F5F5F5F5F5F5E2F5F5F5F5F5F5F5F5F5F5F5F5F5F5F5E2E2E2E2E2E2E2E2E2E2DCE2E2E22DE2E2E2E2E2E2E2E2E2E2E2E2E2E2E2E2E2E2E2E2E2E2E2E2E2E2E2E2
310
E2E2E2E2E2E2E2E2E2E2E2E2E2E2E2E2E2E2E2E2E2E2E2E2E2E2E2E2E2E2E2E2E2E2E2E2E2E2E2E2E2E2E2E2E2E2E2E2E2E2E2E2E22DE2E2E2DCE2E2E2E2E2E2E2E2E2E2C3E2E2E2E2E2E2F5F5E2E2E2E2E2E2E2E2E2E2E2F5F5F5E2E2E2E2E2E2E2E2E2E2F5E2E2F5E2F5E2F5E2E2E2E2E2E2E2E2E2E2E2E2E2E2E2E2E2E2
310
C3E2E2E2E2E2E2E2E2E2E2E2E2E2E2E2F5E2F5E2E2E2E2E2E2E2E2E2E2E2E2E2E2E2E2E2E2E2E2E2F5F5E2E2E2E2E2E2E2E2E2E2E2E2E2F5F5F5F5F5F5F5F5F5F5F5F5F5F5F5F5F5F5F5F5F5F5F5F5F5F5F5F5F5F5F5F5F5F5F5F5F5F5F5F5F5DCE2E2E22DE2E2E2E2E2E2E2E2E2E2E2E2E2E2E2E2E2E2E2E2E2E2E2E2E2E2
310
E2E2E2E2E2E2E2E2E2E2E2E2E2E2E2E2E2E2E2E2E2E2E2E2E2E2E2E2E2E2E2E2E2E2E2E2E2E2E2E2E2E2E2E2E2E2E2E2E2E2E2E2E2E2E22DE2E2E2DCE2E2E2E2E2E2E2E2E2E2C3E2E2E2E2E2E2F5F5E2E2E2E2E2E2E2E2E2E2E2F5F5F5E2E2E2E2E2E2E2E2E2E2F5E2E2F5E2F5E2F5E2E2E2E2E2E2E2E2E2E2E2E2E2E2E2E2
310
E2E2C3E2E2E2E2E2E2E2E2E2E2E2E2E2E2E2F5E2F5E2E2E2E2E2E2E2E2E2E2E2E2E2E2E2E2E2E2E2E2E2F5F5E2E2E2E2E2E2E2E2E2E2E2E2E2F5F5F5F5F5F5F5F5F5F5F5F5F5F5F5F5F5F5F5F5F5F5F5F5F5F5F5F5F5F5F5F5F5F5F5F5F5F5F5F5F5DCE2E2E22DE2E2E2E2E2E2E2E2E2E2E2E2E2E2E2E2E2E2E2E2E2E2E2E2
310
E2E2E2E2E2E2E2E2E2E2E2E2E2E2E2E2E2E2E2E2E2E2E2E2E2E2E2E2E2E2E2E2E2E2E2E2E2E2E2E2E2E2E2E2E2E2E2E2E2E2E2E2E2E2E2E2E22DE2E2E2DCE2E2E2E2E2E2E2E2E2E2C3E2E2E2E2E2E2F5F5E2E2E2E2E2E2E2E2E2E2E2F5F5F5E2E2E2E2E2E2E2E2E2E2F5E2E2F5E2F5E2F5E2E2E2E2E2E2E2E2E2E2E2E2E2E2
310
E2E2E2E2C3E2E2E2E2E2E2E2E2E2E2E2E2E2E2E2F5E2F5E2E2E2E2E2E2E2E2E2E2E2E2E2E2E2E2E2E2E2E2E2F5F5E2E2E2E2E2E2E2E2E2E2E2E2E2F5F5F5F5F5E2E2E2E2E2E2E2E2E2E2E2F5F5F5F5E2E2E2E2E2E2E2E2E2E2E2E2E2E2E2E2E2E2E2E2E2DCE2E2E22DE2E2E2E2E2E2E2E2E2E2E2E2E2E2E2E2E2E2E2E2E2E2
310
E2E2E2E2E2E2E2E2E2E2E2E2E2E2E2E2E2E2E2E2E2E2E2E2E2E2E2E2E2E2E2E2E2E2E2E2E2E2E2E2E2E2E2E2E2E2E2E2E2E2E2E2E2E2E2E2E2E2E22DE2E2E2DCE2E2E2E2E2E2E2E2E2E2C3E2E2E2E2E2E2F5F5E2E2E2E2E2E2E2E2E2E2E2F5F5F5E2E2E2E2E2E2E2E2E2E2F5E2E2F5E2F5E2F5E2E2E2E2E2E2E2E2E2E2E2E2
310
E2E2E2E2E2E2C3E2E2E2E2E2E2E2E2E2E2E2E2E2E2E2F5E2F5E2E2E2E2E2E2E2E2E2E2E2E2E2E2E2E2E2E2E2E2E2F5F5E2E2E2E2E2E2E2E2E2E2E2E2E2F5F5F5F5F5F5F5F5F5F5F5F5F5F5F5F5F5F5F5F5F5F5F5F5F5F5F5F5F5F5F5F5F5F5F5F5F5F5F5F5F5DCE2E2E22DE2E2E2E2E2E2E2E2E2E2E2E2E2E2E2E2E2E2E2E2
310
E2E2E2E2E2E2E2E2E2E2E2E2E2E2E2E2E2E2E2E2E2E2E2E2E2E2E2E2E2E2E2E2E2E2E2E2E2E2E2E2E2E2E2E2E2E2E2E2E2E2E2E2E2E2E2E2E2E2E2E2E22DE2E2E2DCE2E2E2E2E2E2E2E2E2E2C3E2E2E2E2E2E2F5F5E2E2E2E2E2E2E2E2E2E2E2F5F5F5E2E2E2E2E2E2E2E2E2E2F5E2E2F5E2F5E2F5E2E2E2E2E2E2E2E2E2E2
310
E2E2E2E2E2E2E2E2C3E2E2E2E2E2E2E2E2E2E2E2E2E2E2E2F5E2F5E2E2E2E2E2E2E2E2E2E2E2E2E2E2E2E2E2E2E2E2E2F5F5E2E2E2E2E2E2E2E2E2E2E2E2E2F5F5F5F5E2E2E2E2E2E2E2E2E2E2E2E2F5F5F5F5E2E2E2E2E2E2E2E2E2E2E2E2E2E2E2E2E2E2E2E2E2DCE2E2E22DE2E2E2E2E2E2E2E2E2E2E2E2E2E2E2E2E2E2
310
E2E2E2E2E2E2E2E2E2E2E2E2E2E2E2E2E2E2E2E2E2E2E2E2E2E2E2E2E2E2E2E2E2E2E2E2E2E2E2E2E2E2E2E2E2E2E2E2E2E2E2E2E2E2E2E2E2E2E2E2E2E2E22DE2E2E2DCE2E2E2E2E2E2E2E2E2E2C3E2E2E2E2E2E2F5F5E2E2E2F5F5F5F5F5E2E2E2F5F5F5E2E2E2E2E2E2E2E2E2F5F5E2E2F5E2F5E2F5E2E2E2E2E2E2E2E2
310
E2E2E2E2E2E2E2E2E2E2C3E2E2E2E2E2E2E2E2E2E2E2E2E2E2E2F5E2F5E2E2E2E2E2E2E2E2E2E2E2E2E2E2E2E2E2E2E2E2E2F5F5E2E2E2E2E2E2E2E2E2E2E2E2E2F5F5F5F5F5F5F5F5F5F5F5F5F5F5F5F5F5F5F5F5F5F5F5F5F5F5F5F5F5F5F5F5F5F5F5F5F5F5F5F5F5DCE2E2E22DE2E2E2E2E2E2E2E2E2E2E2E2E2E2E2E2
310
E2E2E2E2E2E2E2E2E2E2E2E2E2E2E2E2E2E2E2E2E2E2E2E2E2E2E2E2E2E2E2E2E2E2E2E2E2E2E2E2E2E2E2E2E2E2E2E2E2E2E2E2E2E2E2E2E2E2E2E2E2E2E2E2E22DE2E2E2DCE2E2E2E2E2E2E2E2E2E2C3E2E2E2E2E2E2F5F5E2E2F5F5E2E2E2F5E2E2E2F5F5F5E2E2E2E2E2E2E2E2E2F5F5E2E2F5E2F5E2F5E2E2E2E2E2E2
310
E2E2E2E2E2E2E2E2E2E2E2E2C3E2E2E2E2E2E2E2E2E2E2E2E2E2E2E2F5E2F5E2E2E2E2E2E2E2E2E2E2E2E2E2E2E2E2E2E2E2E2E2F5F5E2E2E2E2E2E2E2E2E2E2E2E2E2F5F5F5F5F5F5F5F5F5F5F5F5F5F5F5E2E2E2E2E2E2E2E2E2E2E2E2E2E2E2E2E2E2E2E2E2E2E2E2E2E2DCE2E2E22DE2E2E2E2E2E2E2E2E2E2E2E2E2E2
310
E2E2E2E2E2E2E2E2E2E2E2E2E2E2E2E2E2E2E2E2E2E2E2E2E2E2E2E2E2E2E2E2E2E2E2E2E2E2E2E2E2E2E2E2E2E2E2E2E2E2E2E2E2E2E2E2E2E2E2E2E2E2E2E2E2E2E22DE2E2E2DCE2E2E2E2E2E2E2E22D2D2DE2E2E2E2E2E2F5F5E2E2F5F5E2E2E2F5E2E2E2F5F5F5E2E2E2E2E2E2E2E2E2F5F5E2E2F5E2F5E2F5E2E2E2E2
310
E2E2E2E2E2E2E2E2E2E2E2E2E2E2C3E2E2E2E2E2E2E2E2E2E2E2E2E2E2E2F5E2F5E2E2E2E2E2E2E2E2E2E2E2E2E2E2E2E2E2E2E2E2E2F5F5E2E2E2E2E2E2E2E2E2E2E2E2E2F5F5F5F5F5F5F5F5F5F5F5F5F5F5F5F5F5F5F5F5F5F5F5F5F5F5F5F5F5F5F5F5F5F5F5F5F5F5F5F5F5DCE2E2E22DE2E2E2E2E2E2E2E2E2E2E2E2
310
E2E2E2E2E2E2E2E2E2E2E2E2E2E2E2E2E2E2E2E2E2E2E2E2E2E2E2E2E2E2E2E2E2E2E2E2E2E2E2E2E2E2E2E2E2E2E2E2E2E2E2E2E2E2E2E2E2E2E2E2E2E2E2E2E2E2E2E2E22DE2E2E2DCE2E2E2E2E2E2E2E22D2D2DE2E2E2E2E2E2F5F5E2F5F5F5E2E2E2F5E2E2E2F5F5F5E2E2E2E2E2E2E2E2E2F5F5E2E2F5E2F5E2F5E2E2
310
E2E2E2E2E2E2E2E2E2E2E2E2E2E2E2E2C3E2E2E2E2E2E2E2E2E2E2E2E2E2E2E2F5E2F5E2E2E2E2E2E2E2E2E2E2E2E2E2E2E2E2E2E2E2E2E2F5F5E2E2E2E2E2E2E2E2E2E2E2E2E2E2E2E2E2E2E2E2E2E2E2E2E2E2E2E2E2F5F5F5F5F5F5F5F5F5F5F5F5F5F5E2E2E2E2E2E2E2E2E2E2E2DCE2E2E22DE2E2E2E2E2E2E2E2E2E2
310
E2E2E2E2E2E2E2E2E2E2E2E2E2E2E2E2E2E2E2E2E2E2E2E2E2E2E2E2E2E2E2E2E2E2E2E2E2E2E2E2E2E2E2E2E2E2E2E2E2E2E2E2E2E2E2E2E2E2E2E2E2E2E2E2E2E2E2E2E2E2E22DE2E2E2DCE2E2E2E2E2E2E2E22D2D2DE2E2E2E2E2E2F5F5E2E2E2F5F5F5F5F5E2E2E2F5F5F5E2E2E2E2E2E2E2E2E2F5F5E2E2F5E2F5E2F5
310
E2E2E2E2E2E2E2E2E2E2E2E2E2E2E2E2E2E2C3E2E2E2E2E2E2E2E2E2E2E2E2E2E2E2F5E2F5E2E2E2E2E2E2E2E2E2E2E2E2E2E2E2E2E2E2E2E2E2F5F5E2E2E2E2E2E2E2E2E2E2E2E2E2E2E2E2E2E2E2E2E2E2E2E2E2E2E2E2E2F5F5F5F5F5F5F5F5F5F5F5F5F5F5F5F5F5F5F5E2E2E2E2E2E2DCE2E2E22DE2E2E2E2E2E2E2E2
310
E2E2E2E2E2E2E2E2E2E2E2E2E2E2E2E2E2E2E2E2E2E2E2E2E2E2E2E2E2E2E2E2E2E2E2E2E2E2E2E2E2E2E2E2E2E2E2E2E2E2E2E2E2E2E2E2E2E2E2E2E2E2E2E2E2E2E2E2E2E2E2E2E22DE2E2E2DCE2E2E2E2E2E2E2E22D2D2DE2E2E2E2E2E2F5F5E2E2E2E2E2E2E2E2E2E2E2F5F5F5E2E2E2E2E2E2E2E2E2E2F5E2E2F5E2F5
310
E2F5E2E2E2E2E2E2E2E2E2E2E2E2E2E2E2E2E2E2C3E2E2E2E2E2E2E2E2E2E2E2E2E2E2E2F5E2F5E2E2E2E2E2E2E2E2E2E2E2E2E2E2E2E2E2E2E2E2E2F5F5E2E2E2E2E2E2E2E2E2E2E2E2E2E2E2E2E2E2E2E2E2E2E2E2E2E2E2E2E2F5F5F5F5F5F5F5F5F5F5F5F5F5F5F5F5F5F5F5E2E2E2E2E2E2DCE2E2E22DE2E2E2E2E2E2
310
E2E2E2E2E2E2E2E2E2E2E2E2E2E2E2E2E2E2E2E2E2E2E2E2E2E2E2E2E2E2E2E2E2E2E2E2E2E2E2E2E2E2E2E2E2E2E2E2E2E2E2E2E2E2E2E2E2E2E2E2E2E2E2E2E2E2E2E2E2E2E2E2E2E2E22DE2E2E2DCE2E2E2E2E2E2E2E2E2E2C3E2E2E2E2E2E2F5F5E2E2E2E2E2E2E2E2E2E2E2F5F5F5E2E2E2E2E2E2E2E2E2E2F5E2E2F5
310
E2F5E2F5E2E2E2E2E2E2E2E2E2E2E2E2E2E2E2E2E2E2C3E2E2E2E2E2E2E2E2E2E2E2E2E2E2E2F5E2F5E2E2E2E2E2E2E2E2E2E2E2E2E2E2E2E2E2E2E2E2E2F5F5E2E2E2E2E2E2E2E2E2E2E2E2E2E2E2E2E2E2E2E2E2E2E2E2E2E2E2E2E2F5F5F5F5F5F5F5F5F5F5F5F5F5F5F5F5F5F5F5F5F5F5F5F5F5DCE2E2E22DE2E2E2E2
310
E2E2E2E2E2E2E2E2E2E2E2E2E2E2E2E2E2E2E2E2E2E2E2E2E2E2E2E2E2E2E2E2E2E2E2E2E2E2E2E2E2E2E2E2E2E2E2E2E2E2E2E2E2E2E2E2E2E2E2E2E2E2E2E2E2E2E2E2E2E2E2E2E2E2E2E2E22DE2E2E2DCE2E2E2E2E2E2E2E2E2E2C3E2E2E2E2E2E2F5F5E2E2E2E2E2E2E2E2E2E2E2F5F5F5E2E2E2E2E2E2E2E2E2E2F5E2
310
E2F5E2F5E2F5E2E2E2E2E2E2E2E2E2E2E2E2E2E2E2E2E2E2C3E2E2E2E2E2E2E2E2E2E2E2E2E2E2E2F5E2F5E2E2E2E2E2E2E2E2E2E2E2E2E2E2E2E2E2E2E2E2E2F5F5E2E2E2E2E2E2E2E2E2E2E2E2E2E2E2E2E2E2E2E2E2E2E2E2E2E2E2E2E2F5F5F5F5F5F5F5E2E2E2E2E2E2E2E2E2E2E2E2E2E2E2E2E2E2DCE2E2E22DE2E2
310
E2E2E2E2E2E2E2E2E2E2E2E2E2E2E2E2E2E2E2E2E2E2E2E2E2E2E2E2E2E2E2E2E2E2E2E2E2E2E2E2E2E2E2E2E2E2E2E2E2E2E2E2E2E2E2E2E2E2E2E2E2E2E2E2E2E2E2E2E2E2E2E2E2E2E2E2E2E2E22DE2E2E2DCE2E2E2E2E2E2E2E2E2E2C3E2E2E2E2E2E2F5F5E2E2E2F5F5F5F5F5E2E2E2F5F5F5E2E2E2E2E2E2E2E2E2F5
310
F5E2E2F5E2F5E2F5E2E2E2E2E2E2E2E2E2E2E2E2E2E2E2E2E2E2C3E2E2E2E2E2E2E2E2E2E2E2E2E2E2E2F5E2F5E2E2E2E2E2E2E2E2E2E2E2E2E2E2E2E2E2E2E2E2E2F5F5E2E2E2E2E2E2E2E2E2E2E2E2E2F5F5F5F5F5F5F5F5F5F5F5F5E2E2E2E2F5F5F5F5F5F5F5F5F5F5F5F5F5F5F5F5F5F5F5E2E2E2E2E2E2DCE2E2E22D
310
E2E2E2E2E2E2E2E2E2E2E2E2E2E2E2E2E2E2E2E2E2E2E2E2E2E2E2E2E2E2E2E2E2E2E2E2E2E2E2E2E2E2E2E2E2E2E2E2E2E2E2E2E2E2E2E2E2E2E2E2E2E2E2E2E2E2E2E2E2E2E2E2E2E2E2E2E2E2E2E2E22DE2E2E2DCE2E2E2E2E2E2E2E2E2E2C3E2E2E2E2E2E2F5F5F5F5F5F5E2E2E2F5E2E2E2F5F5F5E2E2E2E2E2E2E2E2
310
E2F5F5E2E2F5E2F5E2F5E2E2E2E2E2E2E2E2E2E2E2E2E2E2E2E2E2E2C3E2E2E2E2E2E2E2E2E2E2E2E2E2E2E2F5E2F5E2E2E2E2E2E2E2E2E2E2E2E2E2E2E2E2E2E2E2E2E2F5F5E2E2E2E2E2E2E2E2E2E2E2E2E2F5F5F5F5F5F5F5F5F5F5F5F5F5F5F5F5F5F5F5F5F5F5F5F5F5F5F5F5F5F5F5F5F5F5F5F5F5F5F5F5F5DCE2E2
310
E22DE2E2E2E2E2E2E2E2E2E2E2E2E2E2E2E2E2E2E2E2E2E2E2E2E2E2E2E2E2E2E2E2E2E2E2E2E2E2E2E2E2E2E2E2E2E2E2E2E2E2E2E2E2E2E2E2E2E2E2E2E2E2E2E2E2E2E2E2E2E2E2E2E2E2E2E2E2E2E2E2E22DE2E2E2DCE2E2E2E2E2E2E2E2E2E2C3E2E2E2E2E2E2F5F5F5F5F5F5E2E2E2F5E2E2E2F5F5F5E2E2E2E2E2E2
310
E2E2E2F5F5E2E2F5E2F5E2F5E2E2E2E2E2E2E2E2E2E2E2E2E2E2E2E2E2E2C3E2E2E2E2E2E2E2E2E2E2E2E2E2E2E2F5E2F5E2E2E2E2E2E2E2E2E2E2E2E2E2E2E2E2E2E2E2E2E2F5F5E2E2E2E2E2E2E2E2E2E2E2E2E2E2E2E2E2E2E2E2E2E2E2E2E2E2E2E2E2F5F5F5F5F5F5F5F5F5E2E2E2E2E2E2E2E2E2E2E2E2E2E2E2E2DC
310
E2E2E22DE2E2E2E2E2E2E2E2E2E2E2E2E2E2E2E2E2E2E2E2E2E2E2E2E2E2E2E2E2E2E2E2E2E2E2E2E2E2E2E2E2E2E2E2E2E2E2E2E2E2E2E2E2E2E2E2E2E2E2E2E2E2E2E2E2E2E2E2E2E2E2E2E2E2E2E2E2E2E2E2E22DE2E2E2DCE2E2E2E2E2E2E2E2E2E2C3E2E2E2E2E2E2F5F5E2E2E2F5E2E2E2F5E2E2E2F5F5F5E2E2E2E2
310
E2E2E2E2E2F5F5E2E2F5E2F5E2F5E2E2E2E2E2E2E2E2E2E2E2E2E2E2E2E2E2E2C3E2E2E2E2E2E2E2E2E2E2E2E2E2E2E2F5E2F5E2E2E2E2E2E2E2E2E2E2E2E2E2E2E2E2E2E2E2E2E2F5F5E2E2E2E2E2E2E2E2E2E2E2E2E2E2E2E2E2E2E2E2E2E2E2E2E2E2E2E2E2F5F5F5F5F5F5F5F5F5E2E2E2E2E2E2E2E2E2E2E2E2E2E2E2
310
E2DCE2E2E22DE2E2E2E2E2E2E2E2E2E2E2E2E2E2E2E2E2E2E2E2E2E2E2E2E2E2E2E2E2E2E2E2E2E2E2E2E2E2E2E2E2E2E2E2E2E2E2E2E2E2E2E2E2E2E2E2E2E2E2E2E2E2E2E2E2E2E2E2E2E2E2E2E2E2E2E2E2E2E2E2E22DE2E2E2DCE2E2E2E2E2E2E2E2E2E2C3E2E2E2E2E2E2F5F5E2E2E2F5F5F5F5F5E2E2E2F5F5F5E2E2
310
E2E2E2E2E2E2E2F5F5E2E2F5E2F5E2F5E2E2E2E2E2E2E2E2E2E2E2E2E2E2E2E2E2E2C3E2E2E2E2E2E2E2E2E2E2E2E2E2F5F5F5F5F5F5E2E2E2E2E2E2E2E2E2E2E2E2E2E2E2E2E2E2F5F5F5F5F5F5E2E2E2E2E2E2E2E2E2E2E2E2E2E2E2E2E2E2E2E2E2E2E2E2E2E2E2F5F5F5F5F5F5F5F5F5F5F5F5F5F5F5F5F5F5F5E2E2E2
310
E2E2E2DCE2E2E22DE2E2E2E2E2E2E2E2E2E2E2E2E2E2E2E2E2E2E2E2E2E2E2E2E2E2E2E2E2E2E2E2E2E2E2E2E2E2E2E2E2E2E2E2E2E2E2E2E2E2E2E2E2E2E2E2E2E2E2E2E2E2E2E2E2E2E2E2E2E2E2E2E2E2E2E2E2E2E2E2E22DE2E2E2DCE2E2E2E2E2E2E2E2E2E2C3E2E2E2E2E2E2F5F5E2E2E2E2E2E2E2E2E2E2E2F5F5F5
310
E2E2E2E2E2E2E2E2E2E2F5E2E2F5E2F5E2F5E2E2E2E2E2E2E2E2E2E2E2E2E2E2E2E2E22D2DE2E2E2E2E2E2E2E2E2E2E2E2E2F5F5F5F5F5F5E2E2E2E2E2E2E2E2E2E2E2E2E2E2E2E2E2E2F5E2F5F5F5F5E2E2E2E2E2E2E2E2E2E2E2F5F5F5E2E2E2F5F5F5F5F5F5E2E2E2E2F5F5F5F5F5F5F5F5F5F5F5F5F5F5F5F5F5F5F5E2
310
E2E2E2E2E2DCE2E2E22DE2E2E2E2E2E2E2E2E2E2E2E2E2E2E2E2E2E2E2E2E2E2E2E2E2E2E2E2E2E2E2E2E2E2E2E2E2E2E2E2E2E2E2E2E2E2E2E2E2E2E2E2E2E2E2E2E2E2E2E2E2E2E2E2E2E2E2E2E2E2E2E2E2E2E2E2E2E2E2E2E22DE2E2E2DCE2E2E2E2E2E2E2E2E2E2C3E2E2E2E2E2E2F5F5E2E2E2E2E2E2E2E2E2E2E2F5
310
F5F5E2E2E2E2E2E2E2E2E2E2F5E2E2F5E2F5E2F5E2E2E2E2E2E2E2E2E2E2E2E2E2E2E2E22D2D2DE2E2E2E2E2E2E2E2E2E2E2E2E2E2E2F5E2F5E2E2E2E2E2E2E2E2E2E2E2E2E2E2E2E2E2E2E2E2E2F5F5E2E2E2E2E2E2E2E2E2E2E2E2E2F5F5F5F5F5F5F5F5F5F5F5F5E2E2E2E2F5F5F5F5F5F5F5F5F5F5F5F5F5F5F5F5F5F5
310
F5E2E2E2E2E2E2DCE2E2E22DE2E2E2E2E2E2E2E2E2E2E2E2E2E2E2E2E2E2E2E2E2E2E2E2E2E2E2E2E2E2E2E2E2E2E2E2E2E2E2E2E2E2E2E2E2E2E2E2E2E2E2E2E2E2E2E2E2E2E2E2E2E2E2E2E2E2E2E2E2E2E2E2E2E2E2E2E2E2E2E2E22DE2E2E2DCE2E2E2E2E2E2E2E2E2E2C3E2E2E2E2E2E2F5F5E2E2E2E2E2E2E2E2E2E2
310
E2F5F5F5E2E2E2E2E2E2E2E2E2E2F5E2E2F5E2F5E2F5E2E2E2E2E2E2E2E2E2E2E2E2E2E2E2E22D2D2DE2E2E2E2E2E2E2E2E2E2E2E2E2E2E2F5E2F5E2E2E2E2E2E2E2E2E2E2E2E2E2E2E2E2E2E2E2E2E2F5F5E2E2E2E2E2E2E2E2E2E2E2E2E2F5F5F5F5F5F5F5F5F5F5F5F5F5F5F5F5F5F5F5F5F5F5F5F5F5F5F5F5F5F5F5F5
310
F5F5F5F5F5F5F5F5F5DCE2E2E22DE2E2E2E2E2E2E2E2E2E2E2E2E2E2E2E2E2E2E2E2E2E2E2E2E2E2E2E2E2E2E2E2E2E2E2E2E2E2E2E2E2E2E2E2E2E2E2E2E2E2E2E2E2E2E2E2E2E2E2E2E2E2E2E2E2E2E2E2E2E2E2E2E2E2E2E2E2E2E2E2E22DE2E2E2DCE2E2E2E2E2E2E2E2E2E2C3E2E2E2E2E2E2F5F5E2E2E2F5F5F5F5F5
310
E2E2E2F5F5F5E2E2E2E2E2E2E2E2E2F5F5E2E2F5E2F5E2F5E2E2E2E2E2E2E2E2E2E2E2E2E2E2E2E22D2D2DE2E2E2E2E2E2E2E2E2E2E2E2E2E2E2F5E2F5E2E2E2E2E2E2E2E2E2E2E2E2E2E2E2E2E2E2E2E2E2F5F5E2E2E2E2E2E2E2E2E2E2E2E2E2F5F5F5F5F5F5F5F5F5F5F5E2E2E2E2E2F5F5F5F5F5F5F5F5F5F5F5F5F5F5
310
F5E2E2E2E2E2E2E2E2E2E2DCE2E2E22DE2E2E2E2E2E2E2E2E2E2E2E2E2E2E2E2E2E2E2E2E2E2E2E2E2E2E2E2E2E2E2E2E2E2E2E2E2E2E2E2E2E2E2E2E2E2E2E2E2E2E2E2E2E2E2E2E2E2E2E2E2E2E2E2E2E2E2E2E2E2E2E2E2E2E2E2E2E2E2E2E22DE2E2E2DCE2E2E2E2E2E2E2E2E2E2C3E2E2E2E2E2E2F5F5E2F5F5F5E2E2
310
E2F5E2E2E2F5F5F5E2E2E2E2E2E2E2E2E2F5F5E2E2F5E2F5E2F5E2E2E2E2E2E2E2E2E2E2E2E2E2E2E2E22D2D2DE2E2E2E2E2E2E2E2E2E2E2E2E2E2E2F5E2F5E2E2E2E2E2E2E2E2E2E2E2E2E2E2E2E2E2E2E2E2E2F5F5E2E2E2E2E2E2E2E2E2E2E2E2E2F5F5F5F5F5F5F5F5F5F5F5F5F5F5F5F5F5F5F5F5F5F5F5F5F5F5F5F5
310
F5F5F5F5F5F5F5F5F5F5F5F5F5DCE2E2E22DE2E2E2E2E2E2E2E2E2E2E2E2E2E2E2E2E2E2E2E2E2E2E2E2E2E2E2E2E2E2E2E2E2E2E2E2E2E2E2E2E2E2E2E2E2E2E2E2E2E2E2E2E2E2E2E2E2E2E2E2E2E2E2E2E2E2E2E2E2E2E2E2E2E2E2E2E2E2E2E2E22DE2E2E2DCE2E2E2E2E2E2E2E2E2E2C3E2E2E2E2E2E2F5F5E2E2F5F5
310
E2E2E2F5E2E2E2F5F5F5E2E2E2E2E2E2E2E2E2F5F5E2E2F5E2F5E2F5E2E2E2E2E2E2E2E2E2E2E2E2E2E2E2E2E22D2DE2E2E2E2E2E2E2E2E2E2E2E2E2E2E2F5E2F5E2E2E2E2E2E2E2E2E2E2E2E2E2E2E2E2E2E2E2E2E2F5F5E2E2E2E2E2E2E2E2E2E2E2E2E2E2F5F5F5F5F5F5F5F5F5F5E2E2E2E2E2F5F5F5F5F5F5F5F5F5F5
310
F5F5F5F5F5E2E2E2E2E2E2E2E2E2E2DCE2E2E22DE2E2E2E2E2E2E2E2E2E2E2E2E2E2E2E2E2E2E2E2E2E2E2E2E2E2E2E2E2E2E2E2E2E2E2E2E2E2E2E2E2E2E2E2E2E2E2E2E2E2E2E2E2E2E2E2E2E2E2E2E2E2E2E2E2E2E2E2E2E2E2E2E2E2E2E2E2E2E2E2E22DE2E2E2DCE2E2E2E2E2E2E2E2E2E2C3E2E2E2E2E2E2F5F5E2E2
310
F5F5E2E2E2F5E2E2E2F5F5F5E2E2E2E2E2E2E2E2E2F5F5E2E2F5E2F5E2F5E2E2E2E2E2E2E2E2E2E2E2E2E2E2E2E2E22D2DE2E2E2E2E2E2E2E2E2E2E2E2E2E2E2F5E2F5E2E2E2E2E2E2E2E2E2E2E2E2E2E2E2E2E2E2E2E2E2F5F5E2E2E2E2E2E2E2E2E2E2E2E2E2F5F5F5F5F5F5F5F5F5F5F5F5F5F5F5F5F5F5F5F5F5F5F5F5
310
F5F5F5F5F5F5F5F5F5F5F5F5F5F5F5F5F5DCE2E2E22DE2E2E2E2E2E2E2E2E2E2E2E2E2E2E2E2E2E2E2E2E2E2E2E2E2E2E2E2E2E2E2E2E2E2E2E2E2E2E2E2E2E2E2E2E2E2E2E2E2E2E2E2E2E2E2E2E2E2E2E2E2E2E2E2E2E2E2E2E2E2E2E2E2E2E2E2E2E2E2E2E22DE2E2E2DCE2E2E2E2E2E2E2E2E2E2C3E2E2E2E2E2E2F5F5
310
E2E2E2F5F5F5F5F5E2E2E2F5F5F5E2E2E2E2E2E2E2E2E2F5F5E2E2F5E2F5E2F5E2E2E2E2E2E2E2E2E2E2E2E2E2E2E2E2E22D2DE2E2E2E2E2E2E2E2E2E2E2E2E2E2E2F5E2F5E2E2E2E2E2E2E2E2E2E2E2E2E2E2E2E2E2E2E2E2E2F5F5E2E2E2E2E2E2E2E2E2E2E2E2E2F5F5F5F5F5F5F5F5E2E2E2E2E2E2E2E2F5F5F5F5E2E2
310
E2E2E2E2E2E2E2E2E2E2E2E2E2E2E2E2E2E2E2DCE2E2E22DE2E2E2E2E2E2E2E2E2E2E2E2E2E2E2E2E2E2E2E2E2E2E2E2E2E2E2E2E2E2E2E2E2E2E2E2E2E2E2E2E2E2E2E2E2E2E2E2E2E2E2E2E2E2E2E2E2E2E2E2E2E2E2E2E2E2E2E2E2E2E2E2E2E2E2E2E2E2E2E2E22DE2E2E2DCE2E2E2E2E2E2E2E2E2E2C3E2E2E2E2E2E2
310
F5F5E2E2E2E2E2E2E2E2E2F5F5F5F5F5E2E2E2E2E2E2E2E2E2E2F5E2E2F5E2F5E2F5E2E2E2E2E2E2E2E2E2E2E2E2E2E2E2E2E22D2DE2E2E2E2E2E2E2E2E2E2E2E2E2E2E2F5E2F5E2E2E2E2E2E2E2E2E2E2E2E2E2E2E2E2E2E2E2E2E2F5F5E2E2E2E2E2E2E2E2E2E2E2E2E2F5F5F5F5F5F5F5F5F5F5F5F5F5F5F5F5F5F5F5F5
310
F5F5F5F5F5F5F5F5F5F5F5F5F5F5F5F5F5F5F5F5F5DCE2E2E22DE2E2E2E2E2E2E2E2E2E2E2E2E2E2E2E2E2E2E2E2E2E2E2E2E2E2E2E2E2E2E2E2E2E2E2E2E2E2E2E2E2E2E2E2E2E2E2E2E2E2E2E2E2E2E2E2E2E2E2E2E2E2E2E2E2E2E2E2E2E2E2E2E2E2E2E2E2E2E2E2E22DE2E2E2DCE2E2E2E2E2E2E2E2E2E2C3E2E2E2E2
310
E2E2F5F5E2E2E2E2E2E2E2E2E2F5F5F5F5F5E2E2E2E2E2E2E2E2E2E2F5E2E2F5E2F5E2F5E2E2E2E2E2E2E2E2E2E2E2E2E2E2E2E2E2E2C3E2E2E2E2E2E2E2E2E2E2E2E2E2E2E2F5E2F5E2E2E2E2E2E2E2E2E2E2E2E2E2E2E2E2E2E2E2E2E2F5F5E2E2E2E2E2E2E2E2E2E2E2E2E2F5F5F5F5F5F5F5F5F5F5F5F5F5E2E2E2E2E2
310
E2E2E2E2E2E2E2E2E2E2E2E2E2E2E2E2E2E2E2E2E2E2E2DCE2E2E22DE2E2E2E2E2E2E2E2E2E2E2E2E2E2E2E2E2E2E2E2E2E2E2E2E2E2E2E2E2E2E2E2E2E2E2E2E2E2E2E2E2E2E2E2E2E2E2E2E2E2E2E2E2E2E2E2E2E2E2E2E2E2E2E2E2E2E2E2E2E2E2E2E2E2E2E2E2E2E2E2E22DE2E2E2DCE2E2E2E2E2E2E2E2E2E2C3E2E2
310
E2E2E2E2F5F5E2E2E2E2E2E2E2E2E2E2E2F5F5F5E2E2E2E2E2E2E2E2E2E2F5E2E2F5E2F5E2F5E2E2E2E2E2E2E2E2E2E2E2E2E2E2E2E2E2E2C3E2E2E2E2E2E2E2E2E2E2E2E2E2E2E2F5E2F5E2E2E2E2E2E2E2E2E2E2E2E2E2E2E2E2E2E2E2E2E2F5F5E2E2E2E2E2E2E2E2E2E2E2E2E2F5F5F5F5F5F5E2E2E2E2E2E2E2E2E2E2
310
E2E2E2E2E2E2E2E2E2E2E2E2E2E2E2E2E2E2E2E2E2E2E2E2E2DCE2E2E22DE2E2E2E2E2E2E2E2E2E2E2E2E2E2E2E2E2E2E2E2E2E2E2E2E2E2E2E2E2E2E2E2E2E2E2E2E2E2E2E2E2E2E2E2E2E2E2E2E2E2E2E2E2E2E2E2E2E2E2E2E2E2E2E2E2E2E2E2E2E2E2E2E2E2E2E2E2E2E2E2E22DE2E2E2DCE2E2E2E2E2E2E2E2E2E2C3
310
E2E2E2E2E2E2F5F5F5F5F5F5F5F5F5F5F5F5F5F5F5F5E2E2E2E2E2E2E2E2E2E2F5E2E2F5E2F5E2F5E2E2E2E2E2E2E2E2E2E2E2E2E2E2E2E2E2E2C3E2E2E2E2E2E2E2E2E2E2E2E2E2E2E2F5E2F5E2E2E2E2E2E2E2E2E2E2E2E2E2E2E2E2E2E2E2E2E2F5F5E2E2E2E2E2E2E2E2E2E2E2E2E2F5F5F5F5F5F5E2E2E2E2E2E2E2E2
310
E2E2E2E2E2E2E2E2E2E2E2E2E2E2E2E2E2E2E2E2E2E2E2E2E2E2E2DCE2E2E22DE2E2E2E2E2E2E2E2E2E2E2E2E2E2E2E2E2E2E2E2E2E2E2E2E2E2E2E2E2E2E2E2E2E2E2E2E2E2E2E2E2E2E2E2E2E2E2E2E2E2E2E2E2E2E2E2E2E2E2E2E2E2E2E2E2E2E2E2E2E2E2E2E2E2E2E2E2E2E2E2E22DE2E2E2DCE2E2E2E2E2E2E2E2E2
310
E2C3E2E2E2E2E2E2F5E2E2E2E2E2E2E2E2E2E2E2E2E2F5F5E2E2E2E2E2E2E2E2E2E2F5E2E2F5E2F5E2F5E2E2E2E2E2E2E2E2E2E2E2E2E2E2E2E2E2E2C3E2E2E2E2E2E2E2E2E2E2E2E2E2E2E2F5E2F5E2E2E2E2E2E2E2E2E2E2E2E2E2E2E2E2E2E2E2E2E2F5F5E2E2E2E2E2E2E2E2E2E2E2E2E2E2E2E2E2E2E2E2E2E2E2E2E2
310
E2E2E2E2E2E2E2E2E2E2E2E2E2E2E2E2E2E2E2E2E2E2E2E2E2E2E2E2E2DCE2E2E22DE2E2E2E2E2E2E2E2E2E2E2E2E2E2E2E2E2E2E2E2E2E2E2E2E2E2E2E2E2E2E2E2E2E2E2E2E2E2E2E2E2E2E2E2E2E2E2E2E2E2E2E2E2E2E2E2E2E2E2E2E2E2E2E2E2E2E2E2E2E2E2E2E2E2E2E2E2E2E2E2E22DE2E2E2DCE2E2E2E2E2E2E2
310
E2E2C3C3C3C3C3C3C3C3C3F5F5F5F5F5F5F5F5F5F5F5F5F5F5F5E2E2E2E2E2E2E2E2E2E2F5F5F5F5F5F5F5F5E2E2E2E2E2E2E2E2E2E2E2E2E2E2E2E2E2E2C3E2E2E2E2E2E2E2E2E2E2E2E2E2E2E2F5E2F5E2E2E2E2E2E2E2E2E2E2E2E2E2E2E2E2E2E2E2E2E2F5F5E2E2E2E2E2E2E2E2E2E2E2E2E2F5F5F5F5F5F5F5F5F5F5
310
F5F5F5F5F5F5F5F5F5F5F5F5F5F5F5F5F5F5F5F5F5F5F5F5F5F5F5F5F5F5F5DCE2E2E22DE2E2E2E2E2E2E2E2E2E2E2E2E2E2E2E2E2E2E2E2E2E2E2E2E2E2E2E2E2E2E2E2E2E2E2E2E2E2E2E2E2E2E2E2E2E2E2E2E2E2E2E2E2E2E2E2E2E2E2E2E2E2E2E2E2E2E2E2E2E2E2E2E2E2E2E2E2E2E2E2E22DE2E2E2DCE2E2E2E2E2
310
E2E2E2E2E2E2E2E2E2E2E2E2E2E2E2E2E2E2E2E2E2E2E2E2E2E2E2E2E2E2E2E2E2E2E2E2E2E2E2E2E2E2E2E2E2E2E2E2E2E2E2E2E2E2E2E2E2E2E2E2E2E2E2E2C3E2E2E2E2E2E2E2E2E2E2E2E2E2E2E2F5E2F5E2E2E2E2E2E2E2E2E2E2E2E2E2E2E2E2E2E2E2E2E2F5F5E2E2E2E2E2E2E2E2E2E2E2E2E2F5F5F5F5F5F5F5F5
310
F5E2E2E2E2E2E2E2E2E2E2E2E2E2E2E2E2E2E2E2E2E2E2E2F5F5F5F5F5F5E2E2E2DCE2E2E22DE2E2E2E2E2E2E2E2E2E2E2E2E2E2E2E2E2E2E2E2E2E2E2E2E2E2E2E2E2E2E2E2E2E2E2E2E2E2E2E2E2E2E2E2E2E2E2E2E2E2E2E2E2E2E2E2E2E2E2E2E2E2E2E2E2E2E2E2E2E2E2E2E2E2E2E2E2E2E2E2E22DE2E2E2DCE2E2E2
310
E2E2E2E2E2E2E2E2E2E2E2E2E2E2E2E2E2E2E2E2E2E2E2E2E2E2E2E2E2E2E2E2E2E2E2E2E2E2E2E2E2E2E2E2E2E2E2E2E2E2E2E2E2E2E2E2E2E2E2E2E2E2E2E2E2E2C3E2E2E2E2E2E2E2E2E2E2E2E2E2E2E2F5E2F5E2E2E2E2E2E2E2E2E2E2E2E2E2E2E2E2E2E2E2E2E2F5F5E2E2E2E2E2E2E2E2E2E2E2E2E2F5F5F5F5F5F5
310
F5F5F5F5F5F5F5F5F5F5F5F5F5F5F5F5F5F5F5F5F5F5F5F5F5F5F5F5F5F5F5F5F5F5F5DCE2E2E22DE2E2E2E2E2E2E2E2E2E2E2E2E2E2E2E2E2E2E2E2E2E2E2E2E2E2E2E2E2E2E2E2E2E2E2E2E2E2E2E2E2E2E2E2E2E2E2E2E2E2E2E2E2E2E2E2E2E2E2E2E2E2E2E2E2E2E2E2E2E2E2E2E2E2E2E2E2E2E2E2E22DE2E2E2DCE2
310
E2E2E2E2E2E2E2E2E2E2E2E2E2E2E2E2E2E2E2E2E2E2E2E2E2E2E2E2E2E2E2E2E2E2E2E2E2E2E2E2E2E2E2E2E2E2E2E2E2E2E2E2E2E2E2E2E2E2E2E2E2E2E2E2E2E2E2E2C3E2E2E2E2E2E2E2E2E2E2E2E2E2E2E2F5E2F5E2E2E2E2E2E2E2E2E2E2E2E2E2E2E2E2E2E2E2E2E2F5F5E2E2E2E2E2E2E2E2E2E2E2E2E2F5F5F5F5
310
F5F5E2E2E2E2E2E2E2E2E2E2E2E2E2E2E2E2E2E2E2E2E2E2E2E2E2E2E2F5F5F5F5F5F5E2E2DCE2E2E22DE2E2E2E2E2E2E2E2E2E2E2E2E2E2E2E2E2E2E2E2E2E2E2E2E2E2E2E2E2E2E2E2E2E2E2E2E2E2E2E2E2E2E2E2E2E2E2E2E2E2E2E2E2E2E2E2E2E2E2E2E2E2E2E2E2E2E2E2E2E2E2E2E2E2E2E2E2E2E2E2E22DE2E2E2
310
DCE2E2E2E2E2E2E2E2E2E2E2E2E2E2E2E2E2E2E2E2E2E2E2E2E2E2E2E2E2E2E2E2E2E2E2E2E2E2E2E2E2E2E2E2E2E2E2E2E2E2E2E2E2E2E2E2E2E2E2E2E2E2E2E2E2E2E2E2E2C3E2E2E2E2E2E2E2E2E2E2E2E2E2E2E2F5E2F5E2E2E2E2E2E2E2E2E2E2E2E2E2E2E2E2E2E2E2E2E2F5F5E2E2E2E2E2E2E2E2E2E2E2E2E2F5F5
310
F5F5F5F5F5F5F5F5F5F5F5F5F5F5F5F5F5F5F5F5F5F5F5F5F5F5F5F5F5F5F5F5F5F5F5F5F5F5F5DCE2E2E22DE2E2E2E2E2E2E2E2E2E2E2E2E2E2E2E2E2E2E2E2E2E2E2E2E2E2E2E2E2E2E2E2E2E2E2E2E2E2E2E2E2E2E2E2E2E2E2E2E2E2E2E2E2E2E2E2E2E2E2E2E2E2E2E2E2E2E2E2E2E2E2E2E2E2E2E2E2E2E2E2E22DE2
310
E2E2DCE2E2E2E2E2E2E2E2E2E2E2E2E2E2E2E2E2E2E2E2E2E2E2E2E2E2E2E2E2E2E2E2E2E2E2E2E2E2E2E2E2E2E2E2E2E2E2E2E2E2E2E2E2E2E2E2E2E2E2E2E2E2E2E2E2E2E2E2E2C3E2E2E2E2E2E2E2E2E2E2E2E2E2E2E2F5E2F5E2E2E2E2E2E2E2E2E2E2E2E2E2E2E2E2E2E2E2E2E2F5F5E2E2E2E2E2E2E2E2E2E2E2E2E2
310
F5F5F5F5F5F5E2E2E2E2E2E2E2E2E2F5F5F5F5F5F5F5F5F5F5F5F5F5F5F5F5F5F5F5F5F5F5E2E2E2E2DCE2E2E22DE2E2E2E2E2E2E2E2E2E2E2E2E2E2E2E2E2E2E2E2E2E2E2E2E2E2E2E2E2E2E2E2E2E2E2E2E2E2E2E2E2E2E2E2E2E2E2E2E2E2E2E2E2E2E2E2E2E2E2E2E2E2E2E2E2E2E2E2E2E2E2E2E2E2E2E2E2E2E2E2E2
310
2DE2E2E2DCE2E2E2E2E2E2E2E2E2E2E2E2E2E2E2E2E2E2E2E2E2E2E2E2E2E2E2E2E2E2E2E2E2E2E2E2E2E2E2E2E2E2E2E2E2E2E2E2E2E2E2E2E2E2E2E2E2E2E2E2E2E2E2E2E2E2E2E2E2C3E2E2E2E2E2E2E2E2E2E2E2E2E2E2E2F5E2F5E2E2E2E2E2E2E2E2E2E2E2E2E2E2E2E2E2E2E2E2E2F5F5E2E2E2E2E2E2E2E2E2E2E2
310
E2E2F5F5F5F5F5F5F5F5F5F5F5F5F5F5F5F5F5F5F5F5F5F5F5F5F5F5F5F5F5F5F5F5F5F5F5F5F5F5F5F5F5DCE2E2E22DE2E2E2E2E2E2E2E2E2E2E2E2E2E2E2E2E2E2E2E2E2E2E2E2E2E2E2E2E2E2E2E2E2E2E2E2E2E2E2E2E2E2E2E2E2E2E2E2E2E2E2E2E2E2E2E2E2E2E2E2E2E2E2E2E2E2E2E2E2E2E2E2E2E2E2E2E2E2E2
310
E2E22DE2E2E2DCE2E2E2E2E2E2E2E2E2E2E2E2E2E2E2E2E2E2E2E2E2E2E2E2E2E2E2E2E2E2E2E2E2E2E2E2E2E2E2E2E2E2E2E2E2E2E2E2E2E2E2E2E2E2E2E2E2E2E2E2E2E2E2E2E2E2E2E2E2C3E2E2E2E2E2E2E2E2E2E2E2E2E2E2E2F5E2F5E2E2E2E2E2E2E2E2E2E2E2E2E2E2E2E2E2E2E2E2E2F5F5E2E2E2E2E2E2E2E2E2
310
E2E2E2E2F5F5F5F5F5F5E2E2E2E2E2E2E2E2E2E2E2E2E2E2F5F5F5F5F5F5F5F5F5F5F5F5F5F5F5F5E2E2E2E2E2DCE2E2E22DE2E2E2E2E2E2E2E2E2E2E2E2E2E2E2E2E2E2E2E2E2E2E2E2E2E2E2E2E2E2E2E2E2E2E2E2E2E2E2E2E2E2E2E2E2E2E2E2E2E2E2E2E2E2E2E2E2E2E2E2E2E2E2E2E2E2E2E2E2E2E2E2E2E2E2E2E2
310
E2E2E2E22DE2E2E2DCE2E2E2E2E2E2E2E2E2E2E2E2E2E2E2E2E2E2E2E2E2E2E2E2E2E2E2E2E2E2E2E2E2E2E2E2E2E2E2E2E2E2E2E2E2E2E2E2E2E2E2E2E2E2E2E2E2E2E2E2E2E2E2E2E2E2E2E2E2C3E2E2E2E2E2E2E2E2E2E2E2E2E2E2E2F5E2F5E2E2E2E2E2E2E2E2E2E2E2E2E2E2E2E2E2E2E2E2E2F5F5E2E2E2E2E2E2E2
310
E2E2E2E2E2E2F5F5F5F5F5F5F5E2E2E2E2E2E2E2E2E2E2E2E2E2E2E2E2E2E2E2E2E2E2E2E2E2E2E2E2E2E2E2E2E2E2DCE2E2E22DE2E2E2E2E2E2E2E2E2E2E2E2E2E2E2E2E2E2E2E2E2E2E2E2E2E2E2E2E2E2E2E2E2E2E2E2E2E2E2E2E2E2E2E2E2E2E2E2E2E2E2E2E2E2E2E2E2E2E2E2E2E2E2E2E2E2E2E2E2E2E2E2E2E2E2
310
E2E2E2E2E2E22DE2E2E2DCE2E2E2E2E2E2E2E2E2E2E2E2E2E2E2E2E2E2E2E2E2E2E2E2E2E2E2E2E2E2E2E2E2E2E2E2E2E2E2E2E2E2E2E2E2E2E2E2E2E2E2E2E2E2E2E2E2E2E2E2E2E2E2E2E2E2E2E2E2C3E2E2E2E2E2E2E2E2E2E2E2E2E2E2E2F5E2F5E2E2E2E2E2E2E2E2E2E2E2E2E2E2E2E2E2E2E2E2E2F5F5E2E2E2E2E2
310
E2E2E2E2E2E2E2E2F5F5F5F5F5F5F5E2E2E2E2E2E2E2E2E2E2E2E2E2E2E2E2E2E2E2E2E2E2E2E2E2E2E2E2E2E2E2E2E2E2DCE2E2E22DE2E2E2E2E2E2E2E2E2E2E2E2E2E2E2E2E2E2E2E2E2E2E2E2E2E2E2E2E2E2E2E2E2E2E2E2E2E2E2E2E2E2E2E2E2E2E2E2E2E2E2E2E2E2E2E2E2E2E2E2E2E2E2E2E2E2E2E2E2E2E2E2E2
310
E2E2E2E2E2E2E2E22DE2E2E2DCE2E2E2E2E2E2E2E2E2E2E2E2E2E2E2E2E2E2E2E2E2E2E2E2E2E2E2E2E2E2E2E2E2E2E2E2E2E2E2E2E2E2E2E2E2E2E2E2E2E2E2E2E2E2E2E2E2E2E2E2E2E2E2E2E2E2E2E2E2C3E2E2E2E2E2E2E2E2E2E2E2E2E2E2E2F5E2F5E2E2E2E2E2E2E2E2E2E2E2E2E2E2E2E2E2E2E2E2E2F5F5E2E2E2
310
E2E2E2E2E2E2E2E2E2E2E2E2E2E2E2E2E2E2E2E2E2E2E2E2E2E2E2E2E2E2E2E2E2E2E2E2E2E2E2E2E2E2E2E2E2E2E2E2E2E2E2DCE2E2E22DE2E2E2E2E2E2E2E2E2E2E2E2E2E2E2E2E2E2E2E2E2E2E2E2E2E2E2E2E2E2E2E2E2E2E2E2E2E2E2E2E2E2E2E2E2E2E2E2E2E2E2E2E2E2E2E2E2E2E2E2E2E2E2E2E2E2E2E2E2E2E2
310
E2E2E2E2E2E2E2E2E2E22DE2E2E2DCE2E2E2E2E2E2E2E2E2E2E2E2E2E2E2E2E2E2E2E2E2E2E2E2E2E2E2E2E2E2E2E2E2E2E2E2E2E2E2E2E2E2E2E2E2E2E2E2E2E2E2E2E2E2E2E2E2E2E2E2E2E2E2E2E2E2E2E2E2C3E2E2E2E2E2E2E2E2E2E2E2E2E2E2E2F5E2F5E2E2E2E2E2E2E2E2E2E2E2E2E2E2E2E2E2E2E2E2E2F5F5E2
310
E2E2E2E2E2E2E2E2E2E2E2E2F5F5F5F5F5F5F5F5F5F5F5F5E2E2E2E2E2E2E2E2E2E2E2E2E2E2E2E2E2E2E2E2E2E2E2E2E2E2E2E2E2DCE2E2E22DE2E2E2E2E2E2E2E2E2E2E2E2E2E2E2E2E2E2E2E2E2E2E2E2E2E2E2E2E2E2E2E2E2E2E2E2E2E2E2E2E2E2E2E2E2E2E2E2E2E2E2E2E2E2E2E2E2E2E2E2E2E2E2E2E2E2E2E2E2
310
E2E2E2E2E2E2E2E2E2E2E2E22DE2E2E2DCE2E2E2E2E2E2E2E2E2E2E2E2E2E2E2E2E2E2E2E2E2E2E2E2E2E2E2E2E2E2E2E2E2E2E2E2E2E2E2E2E2E2E2E2E2E2E2E2E2E2E2E2E2E2E2E2E2E2E2E2E2E2E2E2E2E2E2E2E2C3E2E2E2E2E2E2E2E2E2E2E2E2E2E2E2F5E2F5E2E2E2E2E2E2E2E2E2E2E2E2E2E2E2E2E2E2E2E2E2F5
310
F5E2E2E2E2E2E2E2E2E2E2E2E2E2F5F5F5F5F5F5F5F5F5F5F5E2E2E2E2E2E2E2F5F5F5E2F5F5F5F5F5E2F5F5F5E2E2E2E2E2E2E2E2E2E2DCE2E2E22DE2E2E2E2E2E2E2E2E2E2E2E2E2E2E2E2E2E2E2E2E2E2E2E2E2E2E2E2E2E2E2E2E2E2E2E2E2E2E2E2E2E2E2E2E2E2E2E2E2E2E2E2E2E2E2E2E2E2E2E2E2E2E2E2E2E2E2
310
E2E2E2E2E2E2E2E2E2E2E2E2E2E22DE2E2E2DCE2E2E2E2E2E2E2E2E2E2E2E2E2E2E2E2E2E2E2E2E2E2E2E2E2E2E2E2E2E2E2E2E2E2E2E2E2E2E2E2E2E2E2E2E2E2E2E2E2E2E2E2E2E2E2E2E2E2E2E2E2E2E2E2E2E2E2E2E2C3E2E2E2E2E2E2E2E2E2E2E2E2E2E2E2F5E2F5E2E2E2E2E2E2E2E2E2E2E2E2E2E2E2E2E2E2E2E2
310
E2F5F5E2E2E2E2E2E2E2E2E2E2E2E2E2F5F5F5F5F5F5F5F5F5F5F5F5F5F5F5F5F5F5F5F5F5F5F5F5F5F5F5F5F5F5F5E2E2E2E2E2E2E2E2E2E2DCE2E2E22DE2E2E2E2E2E2E2E2E2E2E2E2E2E2E2E2E2E2E2E2E2E2E2E2E2E2E2E2E2E2E2E2E2E2E2E2E2E2E2E2E2E2E2E2E2E2E2E2E2E2E2E2E2E2E2E2E2E2E2E2E2E2E2E2E2
310
E2E2E2E2E2E2E2E2E2E2E2E2E2E2E2E22DE2E2E2DCE2E2E2E2E2E2E2E2E2E2E2E2E2E2E2E2E2E2E2E2E2E2E2E2E2E2E2E2E2E2E2E2E2E2E2E2E2E2E2E2E2E2E2E2E2E2E2E2E2E2E2E2E2E2E2E2E2E2E2E2E2E2E2E2E2E2E2E2E2C3E2E2E2E2E2E2E2E2E2E2E2E2E2F5F5F5F5F5F5E2E2E2E2E2E2E2E2E2E2E2E2E2E2E2E2E2
310
E2E2E2F5F5F5E2E2E2E2E2E2E2E2E2E2E2E2F5F5F5F5F5F5F5F5F5F5F5F5F5F5F5F5F5F5F5F5F5F5F5F5F5F5F5F5F5F5F5F5E2E2E2E2E2E2E2E2E2DCE2E2E22DE2E2E2E2E2E2E2E2E2E2E2E2E2E2E2E2E2E2E2E2E2E2E2E2E2E2E2E2E2E2E2E2E2E2E2E2E2E2E2E2E2E2E2E2E2E2E2E2E2E2E2E2E2E2E2E2E2E2E2E2E2E2E2
310
E2E2E2E2E2E2E2E2E2E2E2E2E2E2E2E2E2E22DE2E2E2DCE2E2E2E2E2E2E2E2E2E2E2E2E2E2E2E2E2E2E2E2E2E2E2E2E2E2E2E2E2E2E2E2E2E2E2E2E2E2E2E2E2E2E2E2E2E2E2E2E2E2E2E2E2E2E2E2E2E2E2E2E2E2E2E2E2E2E2E2E2C3E2E2E2E2E2E2E2E2E2E2E2E2E2F5E2E2E2E2F5E2E2E2E2E2E2E2E2E2E2E2E2E2E2E2
310
E2E2E2E2E2F5E2F5E2E2E2E2E2E2E2E2E2E2E2E2F5F5F5F5F5F5F5F5F5F5F5F5F5F5F5F5F5F5F5F5F5F5F5F5F5F5F5F5F5F5F5F5E2E2E2E2E2E2E2E2E2DCE2E2E22DE2E2E2E2E2E2E2E2E2E2E2E2E2E2E2E2E2E2E2E2E2E2E2E2E2E2E2E2E2E2E2E2E2E2E2E2E2E2E2E2E2E2E2E2E2E2E2E2E2E2E2E2E2E2E2E2E2E2E2E2E2
310
E2E2E2E2E2E2E2E2E2E2E2E2E2E2E2E2E2E2E2E22DE2E2E2DCE2E2E2E2E2E2E2E2E2E2E2E2E2E2E2E2E2E2E2E2E2E2E2E2E2E2E2E2E2E2E2E2E2E2E2E2E2E2E2E2E2E2E2E2E2E2E2E2E2E2E2E2E2E2E2E2E2E2E2E2E2E2E2E2E2E2E2E2E2C3E2E2E2E2E2E2E2E2E2E2E2E2E2F5E2E2E2E2F5E2E2E2E2E2E2E2E2E2E2E2E2E2
310
E2E2E2E2E2E2E2F5E2F5E2E2E2E2E2E2E2E2E2E2E2E2F5F5F5F5F5F5F5F5F5E2F5F5F5F5F5F5F5F5F5F5F5F5F5F5F5F5F5F5F5F5F5F5E2E2E2E2E2E2E2E2E2DCE2E2E22DE2E2E2E2E2E2E2E2E2E2E2E2E2E2E2E2E2E2E2E2E2E2E2E2E2E2E2E2E2E2E2E2E2E2E2E2E2E2E2E2E2E2E2E2E2E2E2E2E2E2E2E2E2E2E2E2E2E2E2
310
E2E2E2E2E2E2E2E2E2E2E2E2E2E2E2E2E2E2E2E2E2E22DE2E2E2DCE2E2E2E2E2E2E2E2E2E2E2E2E2E2E2E2E2E2E2E2E2E2E2E2E2E2E2E2E2E2E2E2E2E2E2E2E2E2E2E2E2E2E2E2E2E2E2E2E2E2E2E2E2E2E2E2E2E2E2E2E2E2E2E2E2E2E2E2E2C3E2E2E2E2E2E2E2E2E2E2E2E2E2F5E2F5F5E2F5E2E2E2E2E2E2E2E2E2E2E2
310
E2E2E2E2E2E2E2F5F5F5E2F5E2E2E2E2E2E2E2E2E2E2E2E2F5F5F5F5F5F5F5F5F5F5F5F5F5F5F5F5F5F5F5F5F5F5E2F5F5F5F5F5F5F5F5F5E2E2E2E2E2E2E2E2E2DCE2E2E22DE2E2E2E2E2E2E2E2E2E2E2E2E2E2E2E2E2E2E2E2E2E2E2E2E2E2E2E2E2E2E2E2E2E2E2E2E2E2E2E2E2E2E2E2E2E2E2E2E2E2E2E2E2E2E2E2E2
310
E2E2E2E2E2E2E2E2E2E2E2E2E2E2E2E2E2E2E2E2E2E2E2E22DE2E2E2DCE2E2E2E2E2E2E2E2E2E2E2E2E2E2E2E2E2E2E2E2E2E2E2E2E2E2E2E2E2E2E2E2E2E2E2E2E2E2E2E2E2E2E2E2E2E2E2E2E2E2E2E2E2E2E2E2E2E2E2E2E2E2E2E2E2E2E2E2E2C3E2E2E2E2E2E2E2E2E2E2E2E2E2F5E2F5F5E2F5E2E2E2E2E2E2E2E2E2
310
E2E2E2E2E2E2E2E2E2F5F5F5E2F5E2E2E2E2E2E2E2E2E2E2E2E2F5F5F5F5F5F5F5F5F5F5F5F5F5F5F5F5F5F5F5F5F5F5F5F5F5F5F5F5F5F5F5F5F5F5F5F5F5F5F5F5F5DCE2E2E22DE2E2E2E2E2E2E2E2E2E2E2E2E2E2E2E2E2E2E2E2E2E2E2E2E2E2E2E2E2E2E2E2E2E2E2E2E2E2E2E2E2E2E2E2E2E2E2E2E2E2E2E2E2E2E2
310
E2E2E2E2E2E2E2E2E2E2E2E2E2E2E2E2E2E2E2E2E2E2E2E2E2E22DE2E2E2DCE2E2E2E2E2E2E2E2E2E2E2E2E2E2E2E2E2E2E2E2E2E2E2E2E2E2E2E2E2E2E2E2E2E2E2E2E2E2E2E2E2E2E2E2E2E2E2E2E2E2E2E2E2E2E2E2E2E2E2E2E2E2E2E2E2E2E2E2E2C3E2E2E2E2E2E2E2E2E2E2E2E2E2F5E2F5F5E2F5E2E2E2E2E2E2E2
310
E2E2E2E2E2E2E2E2E2E2E2F5F5F5E2F5E2E2E2E2E2E2E2E2E2E2E2E2F5F5F5F5E2E2E2E2E2E2E2E2E2E2E2E2E2E2E2E2E2E2E2E2E2E2E2E2E2E2E2E2E2E2E2E2E2F5F5F5E2DCE2E2E22DE2E2E2E2E2E2E2E2E2E2E2E2E2E2E2E2E2E2E2E2E2E2E2E2E2E2E2E2E2E2E2E2E2E2E2E2E2E2E2E2E2E2E2E2E2E2E2E2E2E2E2E2E2
310
E2E2E2E2E2E2E2E2E2E2E2E2E2E2E2E2E2E2E2E2E2E2E2E2E2E2E2E22DE2E2E2DCE2E2E2E2E2E2E2E2E2E2E2E2E2E2E2E2E2E2E2E2E2E2E2E2E2E2E2E2E2E2E2E2E2E2E2E2E2E2E2E2E2E2E2E2E2E2E2E2E2E2E2E2E2E2E2E2E2E2E2E2E2E2E2E2E2E2E2E2E2C3E2E2E2E2E2E2E2E2E2E2E2E2E2F5E2F5F5E2F5E2E2E2E2E2
310
E2E2E2E2E2E2E2E2E2E2E2E2E2E2F5F5E2F5E2E2E2E2E2E2E2E2E2E2E2E2F5F5F5F5F5F5F5F5F5F5F5F5F5F5F5F5F5F5F5F5F5F5F5F5F5F5F5F5F5F5F5F5F5F5F5F5F5F5F5F5F5DCE2E2E22DE2E2E2E2E2E2E2E2E2E2E2E2E2E2E2E2E2E2E2E2E2E2E2E2E2E2E2E2E2E2E2E2E2E2E2E2E2E2E2E2E2E2E2E2E2E2E2E2E2E2E2
310
E2E2E2E2E2E2E2E2E2E2E2E2E2E2E2E2E2E2E2E2E2E2E2E2E2E2E2E2E2E22DE2E2E2DCE2E2E2E2E2E2E2E2E2E2E2E2E2E2E2E2E2E2E2E2E2E2E2E2E2E2E2E2E2E2E2E2E2E2E2E2E2E2E2E2E2E2E2E2E2E2E2E2E2E2E2E2E2E2E2E2E2E2E2E2E2E2E2E2E2E2E2E2E2C3E2E2E2E2E2E2E2E2E2E2E2E2E2F5E2F5F5E2F5E2E2E2
310
E2E2E2E2E2E2E2E2E2E2E2E2E2E2E2E2F5F5E2F5E2E2E2E2E2E2E2E2E2E2E2E2F5F5F5F5F5F5F5F5F5F5F5F5F5F5F5F5F5F5F5F5F5F5F5F5F5F5F5F5F5F5F5F5F5F5F5F5F5F5F5F5F5DCE2E2E22DE2E2E2E2E2E2E2E2E2E2E2E2E2E2E2E2E2E2E2E2E2E2E2E2E2E2E2E2E2E2E2E2E2E2E2E2E2E2E2E2E2E2E2E2E2E2E2E2E2
310
E2E2E2E2E2E2E2E2E2E2E2E2E2E2E2E2E2E2E2E2E2E2E2E2E2E2E2E2E2E2E2E22DE2E2E2DCE2E2E2E2E2E2E2E2E2E2E2E2E2E2E2E2E2E2E2E2E2E2E2E2E2E2E2E2E2E2E2E2E2E2E2E2E2E2E2E2E2E2E2E2E2E2E2E2E2E2E2E2E2E2E2E2E2E2E2E2E2E2E2E2E2E2E2E2E2C3E2E2E2E2E2E2E2E2E2E2E2E2E2F5F5F5F5F5F5E2
310
E2E2E2E2E2E2E2E2E2E2E2E2E2E2E2E2E2E2F5F5E2F5E2E2E2E2E2E2E2E2E2E2E2E2F5F5F5F5F5F5E2E2E2E2E2E2E2E2E2E2E2E2E2E2E2E2E2E2E2E2E2E2E2E2E2E2E2F5F5F5F5F5F5E2E2DCE2E2E22DE2E2E2E2E2E2E2E2E2E2E2E2E2E2E2E2E2E2E2E2E2E2E2E2E2E2E2E2E2E2E2E2E2E2E2E2E2E2E2E2E2E2E2E2E2E2E2
310
E2E2E2E2E2E2E2E2E2E2E2E2E2E2E2E2E2E2E2E2E2E2E2E2E2E2E2E2E2E2E2E2E2E22DE2E2E2DCE2E2E2E2E2E2E2E2E2E2E2E2E2E2E2E2E2E2E2E2E2E2E2E2E2E2E2E2E2E2E2E2E2E2E2E2E2E2E2E2E2E2E2E2E2E2E2E2E2E2E2E2E2E2E2E2E2E2E2E2E2E2E2E2E2E2E2E2E2C3C3C3C3C3C3C3C3C3C3C3C3C3C3C3F5F5F5F5
310
F5E2E2E2E2E2E2E2E2E2E2E2E2E2E2E2E2E2E2E2F5F5F5F5E2E2E2E2E2E2E2E2E2E2E2E2F5F5F5F5F5F5F5F5F5F5F5F5F5F5F5F5F5F5F5F5F5F5F5F5F5F5F5F5F5F5F5F5F5F5F5F5F5F5F5F5F5DCE2E2E22DE2E2E2E2E2E2E2E2E2E2E2E2E2E2E2E2E2E2E2E2E2E2E2E2E2E2E2E2E2E2E2E2E2E2E2E2E2E2E2E2E2E2E2E2E2
310
E2E2E2E2E2E2E2E2E2E2E2E2E2E2E2E2E2E2E2E2E2E2E2E2E2E2E2E2E2E2E2E2E2E2E2E22DE2E2E2DCE2E2E2E2E2E2E2E2E2E2E2E2E2E2E2E2E2E2E2E2E2E2E2E2E2E2E2E2E2E2E2E2E2E2E2E2E2E2E2E2E2E2E2E2E2E2E2E2E2E2E2E2E2E2E2E2E2E2E2E2E2E2E2E2E2E2E2E2E2E2E2E2E2E2E2E2E2E2E2E2E2E2E2E2E2E2
310
E2E2E2E2E2E2E2E2E2E2E2E2E2E2E2E2E2E2E2E2E2E2E2E2E2E2E2E2E2E2E2E2E2E2E2E2E2E2F5F5F5F5F5F5F5F5F5E2E2E2E2E2E2E2E2E2E2E2E2E2E2E2E2E2E2E2E2E2E2E2E2E2E2E2F5F5F5E2E2DCE2E2E22DE2E2E2E2E2E2E2E2E2E2E2E2E2E2E2E2E2E2E2E2E2E2E2E2E2E2E2E2E2E2E2E2E2E2E2E2E2E2E2E2E2E2E2
310
E2E2E2E2E2E2E2E2E2E2E2E2E2E2E2E2E2E2E2E2E2E2E2E2E2E2E2E2E2E2E2E2E2E2E2E2E2E22DE2E2E2DCE2E2E2E2E2E2E2E2E2E2E2E2E2E2E2E2E2E2E2E2E2E2E2E2E2E2E2E2E2E2E2E2E2E2E2E2E2E2E2E2E2E2E2E2E2E2E2E2E2E2E2E2E2E2E2E2E2E2E2E2E2E2E2E2E2E2E2E2E2E2E2E2E2E2E2E2E2E2E2E2E2E2E2E2
310
E2E2E2E2E2E2E2E2E2E2E2E2E2E2E2E2E2E2E2E2E2E2E2E2E2E2E2E2E2E2E2E2E2E2E2E2E2E2E2E2F5F5F5F5F5F5F5F5F5F5F5F5F5F5F5F5F5F5F5F5F5F5F5F5F5F5F5F5F5F5F5F5F5F5F5F5F5F5F5F5F5DCE2E2E22DE2E2E2E2E2E2E2E2E2E2E2E2E2E2E2E2E2E2E2E2E2E2E2E2E2E2E2E2E2E2E2E2E2E2E2E2E2E2E2E2E2
310
E2E2E2E2E2E2E2E2E2E2E2E2E2E2E2E2E2E2E2E2E2E2E2E2E2E2E2E2E2E2E2E2E2E2E2E2E2E2E2E22DE2E2E2DCE2E2E2E2E2E2E2E2E2E2E2E2E2E2E2E2E2E2E2E2E2E2E2E2E2E2E2E2E2E2E2E2E2E2E2E2E2E2E2E2E2E2E2E2E2E2E2E2E2E2E2E2E2E2E2E2E2E2E2E2E2E2E2E2E2E2E2E2E2E2E2E2E2E2E2E2E2E2E2E2E2E2
310
E2E2E2E2E2E2E2E2E2E2E2E2E2E2E2E2E2E2E2E2E2E2E2E2E2E2E2E2E2E2E2E2E2E2E2E2E2E2E2E2E2E2F5F5F5F5F5F5E2E2E2E2E2E2E2E2E2E2E2E2E2E2E2E2E2F5F5F5F5F5F5F5F5F5F5F5F5F5E2E2E2E2E2DCE2E2E22DE2E2E2E2E2E2E2E2E2E2E2E2E2E2E2E2E2E2E2E2E2E2E2E2E2E2E2E2E2E2E2E2E2E2E2E2E2E2E2
310
E2E2E2E2E2E2E2E2E2E2E2E2E2E2E2E2E2E2E2E2E2E2E2E2E2E2E2E2E2E2E2E2E2E2E2E2E2E2E2E2E2E22DE2E2E2DCE2E2E2E2E2E2E2E2E2E2E2E2E2E2E2E2E2E2E2E2E2E2E2E2E2E2E2E2E2E2E2E2E2E2E2E2E2E2E2E2E2E2E2E2E2E2E2E2E2E2E2E2E2E2E2E2E2E2E2E2E2E2E2E2E2E2E2E2E2E2E2E2E2E2E2E2E2E2E2E2
310
E2E2E2E2E2E2E2E2E2E2E2E2E2E2E2E2E2E2E2E2E2E2E2E2E2E2E2E2E2E2E2E2E2E2E2E2E2E2E2E2E2E2E2E2F5F5F5F5F5F5F5E2E2E2E2E2E2E2E2E2E2E2E2E2E2E2E2F5F5F5F5F5F5F5F5F5F5F5F5F5E2E2E2E2E2DCE2E2E22DE2E2E2E2E2E2E2E2E2E2E2E2E2E2E2E2E2E2E2E2E2E2E2E2E2E2E2E2E2E2E2E2E2E2E2E2E2
310
E2E2E2E2E2E2E2E2E2E2E2E2E2E2E2E2E2E2E2E2E2E2E2E2E2E2E2E2E2E2E2E2E2E2E2E2E2E2E2E2E2E2E2E22DE2E2E2DCE2E2E2E2E2E2E2E2E2E2E2E2E2E2E2E2E2E2E2E2E2E2E2E2E2E2E2E2E2E2E2E2E2E2E2E2E2E2E2E2E2E2E2E2E2E2E2E2E2E2E2E2E2E2E2E2E2E2E2E2E2E2E2E2E2E2E2E2E2E2E2E2E2E2E2E2E2E2
310
E2E2E2E2E2E2E2E2E2E2E2E2E2E2E2E2E2E2E2E2E2E2E2E2E2E2E2E2E2E2E2E2E2E2E2E2E2E2E2E2E2E2E2E2E2E2F5F5F5F5F5F5F5E2E2E2E2E2E2E2E2E2E2E2E2E2E2E2E2E2E2E2E2E2E2E2E2E2E2E2E2E2E2E2E2E2E2DCE2E2E22DE2E2E2E2E2E2E2E2E2E2E2E2E2E2E2E2E2E2E2E2E2E2E2E2E2E2E2E2E2E2E2E2E2E2E2
310
E2E2E2E2E2E2E2E2E2E2E2E2E2E2E2E2E2E2E2E2E2E2E2E2E2E2E2E2E2E2E2E2E2E2E2E2E2E2E2E2E2E2E2E2E2E22DE2E2E2DCE2E2E2E2E2E2E2E2E2E2E2E2E2E2E2E2E2E2E2E2E2E2E2E2E2E2E2E2E2E2E2E2E2E2E2E2E2E2E2E2E2E2E2E2E2E2E2E2E2E2E2E2E2E2E2E2E2E2E2E2E2E2E2E2E2E2E2E2E2E2E2E2E2E2E2E2
310
E2E2E2E2E2E2E2E2E2E2E2E2E2E2E2E2E2E2E2E2E2E2E2E2E2E2E2E2E2E2E2E2E2E2E2E2E2E2E2E2E2E2E2E2E2E2E2E2F5F5F5F5F5F5F5E2E2E2E2E2E2E2E2E2E2E2E2E2E2E2E2E2E2E2E2E2E2E2E2E2E2E2E2E2E2E2E2E2E2DCE2E2E22DE2E2E2E2E2E2E2E2E2E2E2E2E2E2E2E2E2E2E2E2E2E2E2E2E2E2E2E2E2E2E2E2E2
310
E2E2E2E2E2E2E2E2E2E2E2E2E2E2E2E2E2E2E2E2E2E2E2E2E2E2E2E2E2E2E2E2E2E2E2E2E2E2E2E2E2E2E2E2E2E2E2E22DE2E2E2DCE2E2E2E2E2E2E2E2E2E2E2E2E2E2E2E2E2E2E2E2E2E2E2E2E2E2E2E2E2E2E2E2E2E2E2E2E2E2E2E2E2E2E2E2E2E2E2E2E2E2E2E2E2E2E2E2E2E2E2E2E2E2E2E2E2E2E2E2E2E2E2E2E2E2
310
E2E2E2E2E2E2E2E2E2E2E2E2E2E2E2E2E2E2E2E2E2E2E2E2E2E2E2E2E2E2E2E2E2E2E2E2E2E2E2E2E2E2E2E2E2E2E2E2E2E2E2E2E2E2E2E2E2E2E2E2E2E2E2E2E2E2E2E2E2E2E2E2E2E2E2E2E2E2E2E2E2E2E2E2E2E2E2E2E2E2E2DCE2E2E22DE2E2E2E2E2E2E2E2E2E2E2E2E2E2E2E2E2E2E2E2E2E2E2E2E2E2E2E2E2E2E2
310
E2E2E2E2E2E2E2E2E2E2E2E2E2E2E2E2E2E2E2E2E2E2E2E2E2E2E2E2E2E2E2E2E2E2E2E2E2E2E2E2E2E2E2E2E2E2E2E2E2E22DE2E2E2DCDCDCDCDCDCDCDCDCDCDCDCDCDCDCDCDCDCDCDCDCDCDCDCDCDCDCDCDCDCDCDCDCDCDCDCDCDCDCDCDCDCDCDCDCDCDCDCDCDCDCDCDCDCDCDCDCDCDCDCDCDCDCDCDCDCDCDCDCDCDCDCDC
310
DCDCDCDCDCDCDCDCDCDCDCDCDCDCDCDCDCDCDCDCDCDCDCDCDCDCDCDCDCDCDCDCDCDCDCDCDCDCDCDCDCDCDCDCDCDCDCDCDCDCDCDCDCDCDCDCDCDCDCDCDCDCDCDCDCDCDCDCDCDCDCDCDCDCDCDCDCDCDCDCDCDCDCDCDCDCDCDCDCDCDCDCDCDCE2E2E22DE2E2E2E2E2E2E2E2E2E2E2E2E2E2E2E2E2E2E2E2E2E2E2E2E2E2E2E2E2
310
E2E2E2E2E2E2E2E2E2E2E2E2E2E2E2E2E2E2E2E2E2E2E2E2E2E2E2E2E2E2E2E2E2E2E2E2E2E2E2E2E2E2E2E2E2E2E2E2E2E2E2E22DE2E2E2E2E2E2E2E2E2E2E2E2E2E2E2E2E2E2E2E2E2E2E2E2E2E2E2E2E2E2E2E2E2E2E2E2E2E2E2E2E2E2E2E2E2E2E2E2E2E2E2E2E2E2E2E2E2E2E2E2E2E2E2E2E2E2E2E2E2E2E2E2E2E2
310
E2E2E2E2E2E2E2E2E2E2E2E2E2E2E2E2E2E2E2E2E2E2E2E2E2E2E2E2E2E2E2E2E2E2E2E2E2E2E2E2E2E2E2E2E2E2E2E2E2E2E2E2E2E2E2E2E2E2E2E2E2E2E2E2E2E2E2E2E2E2E2E2E2E2E2E2E2E2E2E2E2E2E2E2E2E2E2E2E2E2E2E2E2E2E2E2E2E2E22DE2E2E2E2E2E2E2E2E2E2E2E2E2E2E2E2E2E2E2E2E2E2E2E2E2E2E2
310
E2E2E2E2E2E2E2E2E2E2E2E2E2E2E2E2E2E2E2E2E2E2E2E2E2E2E2E2E2E2E2E2E2E2E2E2E2E2E2E2E2E2E2E2E2E2E2E2E2E2E2E2E2E22DE2E2E2E2E2E2E2E2E2E2E2E2E2E2E2E2E2E2E2E2E2E2E2E2E2E2E2E2E2E2E2E2E2E2E2E2E2E2E2E2E2E2E2E2E2E2E2E2E2E2E2E2E2E2E2E2E2E2E2E2E2E2E2E2E2E2E2E2E2E2E2E2
310
E2E2E2E2E2E2E2E2E2E2E2E2E2E2E2E2E2E2E2E2E2E2E2E2E2E2E2E2E2E2E2E2E2E2E2E2E2E2E2E2E2E2E2E2E2E2E2E2E2E2E2E2E2E2E2E2E2E2E2E2E2E2E2E2E2E2E2E2E2E2E2E2E2E2E2E2E2E2E2E2E2E2E2E2E2E2E2E2E2E2E2E2E2E2E2E2E2E2E2E2E22DE2E2E2E2E2E2E2E2E2E2E2E2E2E2E2E2E2E2E2E2E2E2E2E2E2
310
E2E2E2E2E2E2E2E2E2E2E2E2E2E2E2E2E2E2E2E2E2E2E2E2E2E2E2E2E2E2E2E2E2E2E2E2E2E2E2E2E2E2E2E2E2E2E2E2E2E2E2E2E2E2E2E22DE2E2E2E2E2E2E2E2E2E2E2E2E2E2E2E2E2E2E2E2E2E2E2E2E2E2E2E2E2E2E2E2E2E2E2E2E2E2E2E2E2E2E2E2E2E2E2E2E2E2E2E2E2E2E2E2E2E2E2E2E2E2E2E2E2E2E2E2E2E2
310
E2E2E2E2E2E2E2E2E2E2E2E2E2E2E2E2E2E2E2E2E2E2E2E2E2E2E2E2E2E2E2E2E2E2E2E2E2E2E2E2E2E2E2E2E2E2E2E2E2E2E2E2E2E2E2E2E2E2E2E2E2E2E2E2E2E2E2E2E2E2E2E2E2E2E2E2E2E2E2E2E2E2E2E2E2E2E2E2E2E2E2E2E2E2E2E2E2E2E2E2E2E2E22DE2E2E2E2E2E2E2E2E2E2E2E2E2E2E2E2E2E2E2E2E2E2E2
310
E2E2E2E2E2E2E2E2E2E2E2E2E2E2E2E2E2E2E2E2E2E2E2E2E2E2E2E2E2E2E2E2E2E2E2E2E2E2E2E2E2E2E2E2E2E2E2E2E2E2E2E2E2E2E2E2E2E22D2D2D2D2D2D2D2D2D2D2D2D2D2D2D2D2D2D2D2D2D2D2D2D2D2D2D2D2D2D2D2D2D2D2D2D2D2D2D2D2D2D2D2D2D2D2D2D2D2D2D2D2D2D2D2D2D2D2D2D2D2D2D2D2D2D2D2D2D
310
2D2D2D2D2D2D2D2D2D2D2D2D2D2D2D2D2D2D2D2D2D2D2D2D2D2D2D2D2D2D2D2D2D2D2D2D2D2D2D2D2D2D2D2D2D2D2D2D2D2D2D2D2D2D2D2D2D2D2D2D2D2D2D2D2D2D2D2D2D2D2D2D2D2D2D2D2D2D2D2D2D2D2D2D2D2D2D2D2D2D2D2D2D2D2D2D2D2D2D2D2D2D2D2D2D2DE2E2E2E2E2E2E2E2E2E2E2E2E2E2E2E2E2E2E2E2E2
310
E2E2E2E2E2E2E2E2E2E2E2E2E2E2E2E2E2E2E2E2E2E2E2E2E2E2E2E2E2E2E2E2E2E2E2E2E2E2E2E2E2E2E2E2E2E2E2E2E2E2E2E2E2E2E2E2E2E2E2E2E2E2E2E2E2E2E2E2E2E2E2E2E2E2E2E2E2E2E2E2E2E2E2E2E2E2E2E2E2E2E2E2E2E2E2E2E2E2E2E2E2E2E2E2E2E2E2E2E2E2E2E2E2E2E2E2E2E2E2E2E2E2E2E2E2E2E2
310
E2E2E2E2E2E2E2E2E2E2E2E2E2E2E2E2E2E2E2E2E2E2E2E2E2E2E2E2E2E2E2E2E2E2E2E2E2E2E2E2E2E2E2E2E2E2E2E2E2E2E2E2E2E2E2E2E2E2E2E2E2E2E2E2E2E2E2E2E2E2E2E2E2E2E2E2E2E2E2E2E2E2E2E2E2E2E2E2E2E2E2E2E2E2E2E2E2E2E2E2E2E2E2E2E2E2E2E2E2E2E2E2E2E2E2E2E2E2E2E2E2E2E2E2E2E2E2
310
E2E2E2E2E2E2E2E2E2E2E2E2E2E2E2E2E2E2E2E2E2E2E2E2E2E2E2E2E2E2
  0
XRECORD
  5
10F4
102
{ACAD_REACTORS
330
10F3
102
}
330
10F3
100
AcDbXrecord
280
     1
102
SHADEPLOT
 70
     0
102
SHADEPLOTRESLEVEL
 70
     2
102
SHADEPLOTCUSTOMDPI
 70
   300
  0
XRECORD
  5
10C9
102
{ACAD_REACTORS
330
3C4
102
}
330
3C4
100
AcDbXrecord
280
     1
102
MATERIAL
148
0.0
149
0.0
149
0.0
 93
        0
 94
      127
282
     0
 72
     0
 77
     0
171
     0
175
     0
179
     0
273
     0
  0
XRECORD
  5
3C6
102
{ACAD_REACTORS
330
3C4
102
}
330
3C4
100
AcDbXrecord
280
     1
270
     1
271
     1
  0
XRECORD
  5
3C5
102
{ACAD_REACTORS
330
3C4
102
}
330
3C4
100
AcDbXrecord
280
     1
270
     1
271
     1
  0
XRECORD
  5
3C9
102
{ACAD_REACTORS
330
3C4
102
}
330
3C4
100
AcDbXrecord
280
     1
270
     1
271
     1
  0
XRECORD
  5
3C8
102
{ACAD_REACTORS
330
3C4
102
}
330
3C4
100
AcDbXrecord
280
     1
270
     1
271
     1
  0
XRECORD
  5
3CA
102
{ACAD_REACTORS
330
3C4
102
}
330
3C4
100
AcDbXrecord
280
     1
270
     1
271
     1
  0
XRECORD
  5
3C7
102
{ACAD_REACTORS
330
3C4
102
}
330
3C4
100
AcDbXrecord
280
     1
270
     1
271
     1
  0
XRECORD
  5
10C8
102
{ACAD_REACTORS
330
3BC
102
}
330
3BC
100
AcDbXrecord
280
     1
102
MATERIAL
148
0.0
149
0.0
149
0.0
 93
        0
 94
      127
282
     0
 72
     0
 77
     0
171
     0
175
     0
179
     0
273
     0
  0
XRECORD
  5
3BE
102
{ACAD_REACTORS
330
3BC
102
}
330
3BC
100
AcDbXrecord
280
     1
270
     1
271
     1
  0
XRECORD
  5
3BD
102
{ACAD_REACTORS
330
3BC
102
}
330
3BC
100
AcDbXrecord
280
     1
270
     1
271
     1
  0
XRECORD
  5
3C1
102
{ACAD_REACTORS
330
3BC
102
}
330
3BC
100
AcDbXrecord
280
     1
270
     1
271
     1
  0
XRECORD
  5
3C0
102
{ACAD_REACTORS
330
3BC
102
}
330
3BC
100
AcDbXrecord
280
     1
270
     1
271
     1
  0
XRECORD
  5
3C2
102
{ACAD_REACTORS
330
3BC
102
}
330
3BC
100
AcDbXrecord
280
     1
270
     1
271
     1
  0
XRECORD
  5
3BF
102
{ACAD_REACTORS
330
3BC
102
}
330
3BC
100
AcDbXrecord
280
     1
270
     1
271
     1
  0
XRECORD
  5
10CA
102
{ACAD_REACTORS
330
3CC
102
}
330
3CC
100
AcDbXrecord
280
     1
102
MATERIAL
148
0.0
149
0.0
149
0.0
 93
        0
 94
      127
282
     0
 72
     0
 77
     0
171
     0
175
     0
179
     0
273
     0
  0
XRECORD
  5
3CE
102
{ACAD_REACTORS
330
3CC
102
}
330
3CC
100
AcDbXrecord
280
     1
270
     1
271
     1
  0
XRECORD
  5
3CD
102
{ACAD_REACTORS
330
3CC
102
}
330
3CC
100
AcDbXrecord
280
     1
270
     1
271
     1
  0
XRECORD
  5
3D1
102
{ACAD_REACTORS
330
3CC
102
}
330
3CC
100
AcDbXrecord
280
     1
270
     1
271
     1
  0
XRECORD
  5
3D0
102
{ACAD_REACTORS
330
3CC
102
}
330
3CC
100
AcDbXrecord
280
     1
270
     1
271
     1
  0
XRECORD
  5
3D2
102
{ACAD_REACTORS
330
3CC
102
}
330
3CC
100
AcDbXrecord
280
     1
270
     1
271
     1
  0
XRECORD
  5
3CF
102
{ACAD_REACTORS
330
3CC
102
}
330
3CC
100
AcDbXrecord
280
     1
270
     1
271
     1
  0
CELLSTYLEMAP
  5
10C5
102
{ACAD_REACTORS
330
431
102
}
330
431
100
AcDbCellStyleMap
 90
        3
300
CELLSTYLE
  1
TABLEFORMAT_BEGIN
 90
        5
170
     1
 91
        0
 92
    32768
 62
   257
 93
        1
300
CONTENTFORMAT
  1
CONTENTFORMAT_BEGIN
 90
        0
 91
        0
 92
      512
 93
        0
300

 40
0.0
140
1.0
 94
        5
 62
     0
340
17
144
0.25
309
CONTENTFORMAT_END
171
     0
 94
        0
309
TABLEFORMAT_END
  1
CELLSTYLE_BEGIN
 90
        1
 91
        1
300
_TITLE
309
CELLSTYLE_END
300
CELLSTYLE
  1
TABLEFORMAT_BEGIN
 90
        5
170
     1
 91
        0
 92
        0
 62
   257
 93
        1
300
CONTENTFORMAT
  1
CONTENTFORMAT_BEGIN
 90
        0
 91
        0
 92
      512
 93
        0
300

 40
0.0
140
1.0
 94
        5
 62
     0
340
17
144
0.18
309
CONTENTFORMAT_END
171
     0
 94
        0
309
TABLEFORMAT_END
  1
CELLSTYLE_BEGIN
 90
        2
 91
        1
300
_HEADER
309
CELLSTYLE_END
300
CELLSTYLE
  1
TABLEFORMAT_BEGIN
 90
        5
170
     1
 91
        0
 92
        0
 62
   257
 93
        1
300
CONTENTFORMAT
  1
CONTENTFORMAT_BEGIN
 90
        0
 91
        0
 92
      512
 93
        0
300

 40
0.0
140
1.0
 94
        2
 62
     0
340
17
144
0.18
309
CONTENTFORMAT_END
171
     0
 94
        0
309
TABLEFORMAT_END
  1
CELLSTYLE_BEGIN
 90
        3
 91
        2
300
_DATA
309
CELLSTYLE_END
  0
XRECORD
  5
10F1
102
{ACAD_REACTORS
330
431
102
}
330
431
100
AcDbXrecord
280
     1
102
ACAD_ROUNDTRIP_PRE2007_TABLESTYLE
 90
      512
 91
        0
  1

 92
      512
 93
        0
  2

 94
      512
 95
        0
  3

  0
XRECORD
  5
10D6
102
{ACAD_REACTORS
330
10D5
102
}
330
10D5
100
AcDbXrecord
280
     1
102
RTVSPropertyOp0
 70
     1
102
RTVSPropertyOp1
 70
     1
102
RTVSPropertyOp2
 70
     1
102
RTVSPropertyOp3
 70
     1
102
RTVSPropertyOp4
 70
     1
102
RTVSPropertyOp5
 70
     1
102
RTVSPropertyOp6
 70
     1
102
RTVSPropertyOp7
 70
     1
102
RTVSPropertyOp8
 70
     1
102
RTVSPropertyOp9
 70
     1
102
RTVSPropertyOp10
 70
     1
102
RTVSPropertyOp11
 70
     1
102
RTVSPropertyOp12
 70
     1
102
RTVSPropertyOp13
 70
     1
102
RTVSPropertyOp14
 70
     1
102
RTVSPropertyOp15
 70
     1
102
RTVSPropertyOp16
 70
     1
102
RTVSPropertyOp17
 70
     1
102
RTVSPropertyOp18
 70
     1
102
RTVSPropertyOp19
 70
     1
102
RTVSPropertyOp20
 70
     1
102
RTVSPropertyOp21
 70
     1
102
RTVSPropertyOp22
 70
     1
102
RTVSPropertyOp23
 70
     1
102
RTVSPropertyOp24
 70
     1
102
RTVSPropertyOp25
 70
     1
102
RTVSPropertyOp26
 70
     1
102
RTVSPropertyOp27
 70
     1
  0
XRECORD
  5
10DA
102
{ACAD_REACTORS
330
10D9
102
}
330
10D9
100
AcDbXrecord
280
     1
102
RTVSPropertyOp0
 70
     1
102
RTVSPropertyOp1
 70
     1
102
RTVSPropertyOp2
 70
     1
102
RTVSPropertyOp3
 70
     1
102
RTVSPropertyOp4
 70
     1
102
RTVSPropertyOp5
 70
     1
102
RTVSPropertyOp6
 70
     1
102
RTVSPropertyOp7
 70
     1
102
RTVSPropertyOp8
 70
     1
102
RTVSPropertyOp9
 70
     1
102
RTVSPropertyOp10
 70
     1
102
RTVSPropertyOp11
 70
     1
102
RTVSPropertyOp12
 70
     1
102
RTVSPropertyOp13
 70
     1
102
RTVSPropertyOp14
 70
     1
102
RTVSPropertyOp15
 70
     1
102
RTVSPropertyOp16
 70
     1
102
RTVSPropertyOp17
 70
     1
102
RTVSPropertyOp18
 70
     1
102
RTVSPropertyOp19
 70
     1
102
RTVSPropertyOp20
 70
     1
102
RTVSPropertyOp21
 70
     1
102
RTVSPropertyOp22
 70
     1
102
RTVSPropertyOp23
 70
     1
102
RTVSPropertyOp24
 70
     1
102
RTVSPropertyOp25
 70
     1
102
RTVSPropertyOp26
 70
     1
102
RTVSPropertyOp27
 70
     1
  0
XRECORD
  5
10D8
102
{ACAD_REACTORS
330
10D7
102
}
330
10D7
100
AcDbXrecord
280
     1
102
RTVSPropertyOp0
 70
     1
102
RTVSPropertyOp1
 70
     1
102
RTVSPropertyOp2
 70
     1
102
RTVSPropertyOp3
 70
     1
102
RTVSPropertyOp4
 70
     1
102
RTVSPropertyOp5
 70
     1
102
RTVSPropertyOp6
 70
     1
102
RTVSPropertyOp7
 70
     1
102
RTVSPropertyOp8
 70
     1
102
RTVSPropertyOp9
 70
     1
102
RTVSPropertyOp10
 70
     1
102
RTVSPropertyOp11
 70
     1
102
RTVSPropertyOp12
 70
     1
102
RTVSPropertyOp13
 70
     1
102
RTVSPropertyOp14
 70
     1
102
RTVSPropertyOp15
 70
     1
102
RTVSPropertyOp16
 70
     1
102
RTVSPropertyOp17
 70
     1
102
RTVSPropertyOp18
 70
     1
102
RTVSPropertyOp19
 70
     1
102
RTVSPropertyOp20
 70
     1
102
RTVSPropertyOp21
 70
     1
102
RTVSPropertyOp22
 70
     1
102
RTVSPropertyOp23
 70
     1
102
RTVSPropertyOp24
 70
     1
102
RTVSPropertyOp25
 70
     1
102
RTVSPropertyOp26
 70
     1
102
RTVSPropertyOp27
 70
     1
  0
XRECORD
  5
10D4
102
{ACAD_REACTORS
330
10D3
102
}
330
10D3
100
AcDbXrecord
280
     1
102
RTVSPropertyOp0
 70
     1
102
RTVSPropertyOp1
 70
     1
102
RTVSPropertyOp2
 70
     1
102
RTVSPropertyOp3
 70
     1
102
RTVSPropertyOp4
 70
     1
102
RTVSPropertyOp5
 70
     1
102
RTVSPropertyOp6
 70
     1
102
RTVSPropertyOp7
 70
     1
102
RTVSPropertyOp8
 70
     1
102
RTVSPropertyOp9
 70
     1
102
RTVSPropertyOp10
 70
     1
102
RTVSPropertyOp11
 70
     1
102
RTVSPropertyOp12
 70
     1
102
RTVSPropertyOp13
 70
     1
102
RTVSPropertyOp14
 70
     1
102
RTVSPropertyOp15
 70
     1
102
RTVSPropertyOp16
 70
     1
102
RTVSPropertyOp17
 70
     1
102
RTVSPropertyOp18
 70
     1
102
RTVSPropertyOp19
 70
     1
102
RTVSPropertyOp20
 70
     1
102
RTVSPropertyOp21
 70
     1
102
RTVSPropertyOp22
 70
     1
102
RTVSPropertyOp23
 70
     1
102
RTVSPropertyOp24
 70
     1
102
RTVSPropertyOp25
 70
     1
102
RTVSPropertyOp26
 70
     1
102
RTVSPropertyOp27
 70
     1
  0
XRECORD
  5
10E2
102
{ACAD_REACTORS
330
10E1
102
}
330
10E1
100
AcDbXrecord
280
     1
102
RTVSPropertyOp0
 70
     1
102
RTVSPropertyOp1
 70
     1
102
RTVSPropertyOp2
 70
     1
102
RTVSPropertyOp3
 70
     1
102
RTVSPropertyOp4
 70
     1
102
RTVSPropertyOp5
 70
     1
102
RTVSPropertyOp6
 70
     1
102
RTVSPropertyOp7
 70
     1
102
RTVSPropertyOp8
 70
     1
102
RTVSPropertyOp9
 70
     1
102
RTVSPropertyOp10
 70
     1
102
RTVSPropertyOp11
 70
     1
102
RTVSPropertyOp12
 70
     1
102
RTVSPropertyOp13
 70
     1
102
RTVSPropertyOp14
 70
     1
102
RTVSPropertyOp15
 70
     1
102
RTVSPropertyOp16
 70
     1
102
RTVSPropertyOp17
 70
     1
102
RTVSPropertyOp18
 70
     1
102
RTVSPropertyOp19
 70
     1
102
RTVSPropertyOp20
 70
     1
102
RTVSPropertyOp21
 70
     1
102
RTVSPropertyOp22
 70
     1
102
RTVSPropertyOp23
 70
     1
102
RTVSPropertyOp24
 70
     1
102
RTVSPropertyOp25
 70
     1
102
RTVSPropertyOp26
 70
     1
102
RTVSPropertyOp27
 70
     1
  0
XRECORD
  5
10EA
102
{ACAD_REACTORS
330
10E9
102
}
330
10E9
100
AcDbXrecord
280
     1
102
RTVSPropertyOp0
 70
     1
102
RTVSPropertyOp1
 70
     1
102
RTVSPropertyOp2
 70
     1
102
RTVSPropertyOp3
 70
     1
102
RTVSPropertyOp4
 70
     1
102
RTVSPropertyOp5
 70
     1
102
RTVSPropertyOp6
 70
     1
102
RTVSPropertyOp7
 70
     1
102
RTVSPropertyOp8
 70
     1
102
RTVSPropertyOp9
 70
     1
102
RTVSPropertyOp10
 70
     1
102
RTVSPropertyOp11
 70
     1
102
RTVSPropertyOp12
 70
     1
102
RTVSPropertyOp13
 70
     1
102
RTVSPropertyOp14
 70
     1
102
RTVSPropertyOp15
 70
     1
102
RTVSPropertyOp16
 70
     1
102
RTVSPropertyOp17
 70
     1
102
RTVSPropertyOp18
 70
     1
102
RTVSPropertyOp19
 70
     1
102
RTVSPropertyOp20
 70
     1
102
RTVSPropertyOp21
 70
     1
102
RTVSPropertyOp22
 70
     1
102
RTVSPropertyOp23
 70
     1
102
RTVSPropertyOp24
 70
     1
102
RTVSPropertyOp25
 70
     1
102
RTVSPropertyOp26
 70
     1
102
RTVSPropertyOp27
 70
     1
  0
XRECORD
  5
10DC
102
{ACAD_REACTORS
330
10DB
102
}
330
10DB
100
AcDbXrecord
280
     1
102
RTVSPropertyOp0
 70
     1
102
RTVSPropertyOp1
 70
     1
102
RTVSPropertyOp2
 70
     1
102
RTVSPropertyOp3
 70
     1
102
RTVSPropertyOp4
 70
     1
102
RTVSPropertyOp5
 70
     1
102
RTVSPropertyOp6
 70
     1
102
RTVSPropertyOp7
 70
     1
102
RTVSPropertyOp8
 70
     1
102
RTVSPropertyOp9
 70
     1
102
RTVSPropertyOp10
 70
     1
102
RTVSPropertyOp11
 70
     1
102
RTVSPropertyOp12
 70
     1
102
RTVSPropertyOp13
 70
     1
102
RTVSPropertyOp14
 70
     1
102
RTVSPropertyOp15
 70
     1
102
RTVSPropertyOp16
 70
     1
102
RTVSPropertyOp17
 70
     1
102
RTVSPropertyOp18
 70
     1
102
RTVSPropertyOp19
 70
     1
102
RTVSPropertyOp20
 70
     1
102
RTVSPropertyOp21
 70
     1
102
RTVSPropertyOp22
 70
     1
102
RTVSPropertyOp23
 70
     1
102
RTVSPropertyOp24
 70
     1
102
RTVSPropertyOp25
 70
     1
102
RTVSPropertyOp26
 70
     1
102
RTVSPropertyOp27
 70
     1
  0
XRECORD
  5
10E0
102
{ACAD_REACTORS
330
10DF
102
}
330
10DF
100
AcDbXrecord
280
     1
102
RTVSPropertyOp0
 70
     1
102
RTVSPropertyOp1
 70
     1
102
RTVSPropertyOp2
 70
     1
102
RTVSPropertyOp3
 70
     1
102
RTVSPropertyOp4
 70
     1
102
RTVSPropertyOp5
 70
     1
102
RTVSPropertyOp6
 70
     1
102
RTVSPropertyOp7
 70
     1
102
RTVSPropertyOp8
 70
     1
102
RTVSPropertyOp9
 70
     1
102
RTVSPropertyOp10
 70
     1
102
RTVSPropertyOp11
 70
     1
102
RTVSPropertyOp12
 70
     1
102
RTVSPropertyOp13
 70
     1
102
RTVSPropertyOp14
 70
     1
102
RTVSPropertyOp15
 70
     1
102
RTVSPropertyOp16
 70
     1
102
RTVSPropertyOp17
 70
     1
102
RTVSPropertyOp18
 70
     1
102
RTVSPropertyOp19
 70
     1
102
RTVSPropertyOp20
 70
     1
102
RTVSPropertyOp21
 70
     1
102
RTVSPropertyOp22
 70
     1
102
RTVSPropertyOp23
 70
     1
102
RTVSPropertyOp24
 70
     1
102
RTVSPropertyOp25
 70
     1
102
RTVSPropertyOp26
 70
     1
102
RTVSPropertyOp27
 70
     1
  0
XRECORD
  5
10F0
102
{ACAD_REACTORS
330
10EF
102
}
330
10EF
100
AcDbXrecord
280
     1
102
RTVSPropertyOp0
 70
     0
102
RTVSPropertyOp1
 70
     0
102
RTVSPropertyOp2
 70
     0
102
RTVSPropertyOp3
 70
     0
102
RTVSPropertyOp4
 70
     0
102
RTVSPropertyOp5
 70
     0
102
RTVSPropertyOp6
 70
     0
102
RTVSPropertyOp7
 70
     0
102
RTVSPropertyOp8
 70
     0
102
RTVSPropertyOp9
 70
     0
102
RTVSPropertyOp10
 70
     0
102
RTVSPropertyOp11
 70
     0
102
RTVSPropertyOp12
 70
     0
102
RTVSPropertyOp13
 70
     0
102
RTVSPropertyOp14
 70
     2
102
RTVSPropertyOp15
 70
     0
102
RTVSPropertyOp16
 70
     0
102
RTVSPropertyOp17
 70
     0
102
RTVSPropertyOp18
 70
     0
102
RTVSPropertyOp19
 70
     0
102
RTVSPropertyOp20
 70
     0
102
RTVSPropertyOp21
 70
     0
102
RTVSPropertyOp22
 70
     0
102
RTVSPropertyOp23
 70
     0
102
RTVSPropertyOp24
 70
     0
102
RTVSPropertyOp25
 70
     0
102
RTVSPropertyOp26
 70
     0
102
RTVSPropertyOp27
 70
     0
  0
XRECORD
  5
10E8
102
{ACAD_REACTORS
330
10E7
102
}
330
10E7
100
AcDbXrecord
280
     1
102
RTVSPropertyOp0
 70
     1
102
RTVSPropertyOp1
 70
     1
102
RTVSPropertyOp2
 70
     1
102
RTVSPropertyOp3
 70
     1
102
RTVSPropertyOp4
 70
     1
102
RTVSPropertyOp5
 70
     1
102
RTVSPropertyOp6
 70
     1
102
RTVSPropertyOp7
 70
     1
102
RTVSPropertyOp8
 70
     1
102
RTVSPropertyOp9
 70
     1
102
RTVSPropertyOp10
 70
     1
102
RTVSPropertyOp11
 70
     1
102
RTVSPropertyOp12
 70
     1
102
RTVSPropertyOp13
 70
     1
102
RTVSPropertyOp14
 70
     1
102
RTVSPropertyOp15
 70
     1
102
RTVSPropertyOp16
 70
     1
102
RTVSPropertyOp17
 70
     1
102
RTVSPropertyOp18
 70
     1
102
RTVSPropertyOp19
 70
     1
102
RTVSPropertyOp20
 70
     1
102
RTVSPropertyOp21
 70
     1
102
RTVSPropertyOp22
 70
     1
102
RTVSPropertyOp23
 70
     1
102
RTVSPropertyOp24
 70
     1
102
RTVSPropertyOp25
 70
     1
102
RTVSPropertyOp26
 70
     1
102
RTVSPropertyOp27
 70
     1
  0
XRECORD
  5
10CC
102
{ACAD_REACTORS
330
10CB
102
}
330
10CB
100
AcDbXrecord
280
     1
102
RTVSPropertyOp0
 70
     1
102
RTVSPropertyOp1
 70
     1
102
RTVSPropertyOp2
 70
     1
102
RTVSPropertyOp3
 70
     1
102
RTVSPropertyOp4
 70
     1
102
RTVSPropertyOp5
 70
     1
102
RTVSPropertyOp6
 70
     1
102
RTVSPropertyOp7
 70
     1
102
RTVSPropertyOp8
 70
     1
102
RTVSPropertyOp9
 70
     1
102
RTVSPropertyOp10
 70
     1
102
RTVSPropertyOp11
 70
     1
102
RTVSPropertyOp12
 70
     1
102
RTVSPropertyOp13
 70
     1
102
RTVSPropertyOp14
 70
     1
102
RTVSPropertyOp15
 70
     1
102
RTVSPropertyOp16
 70
     1
102
RTVSPropertyOp17
 70
     1
102
RTVSPropertyOp18
 70
     1
102
RTVSPropertyOp19
 70
     1
102
RTVSPropertyOp20
 70
     1
102
RTVSPropertyOp21
 70
     1
102
RTVSPropertyOp22
 70
     1
102
RTVSPropertyOp23
 70
     1
102
RTVSPropertyOp24
 70
     1
102
RTVSPropertyOp25
 70
     1
102
RTVSPropertyOp26
 70
     1
102
RTVSPropertyOp27
 70
     1
  0
XRECORD
  5
10CE
102
{ACAD_REACTORS
330
10CD
102
}
330
10CD
100
AcDbXrecord
280
     1
102
RTVSPropertyOp0
 70
     1
102
RTVSPropertyOp1
 70
     1
102
RTVSPropertyOp2
 70
     1
102
RTVSPropertyOp3
 70
     1
102
RTVSPropertyOp4
 70
     1
102
RTVSPropertyOp5
 70
     1
102
RTVSPropertyOp6
 70
     1
102
RTVSPropertyOp7
 70
     1
102
RTVSPropertyOp8
 70
     1
102
RTVSPropertyOp9
 70
     1
102
RTVSPropertyOp10
 70
     1
102
RTVSPropertyOp11
 70
     1
102
RTVSPropertyOp12
 70
     1
102
RTVSPropertyOp13
 70
     1
102
RTVSPropertyOp14
 70
     1
102
RTVSPropertyOp15
 70
     1
102
RTVSPropertyOp16
 70
     1
102
RTVSPropertyOp17
 70
     1
102
RTVSPropertyOp18
 70
     1
102
RTVSPropertyOp19
 70
     1
102
RTVSPropertyOp20
 70
     1
102
RTVSPropertyOp21
 70
     1
102
RTVSPropertyOp22
 70
     1
102
RTVSPropertyOp23
 70
     1
102
RTVSPropertyOp24
 70
     1
102
RTVSPropertyOp25
 70
     1
102
RTVSPropertyOp26
 70
     1
102
RTVSPropertyOp27
 70
     1
  0
XRECORD
  5
10D0
102
{ACAD_REACTORS
330
10CF
102
}
330
10CF
100
AcDbXrecord
280
     1
102
RTVSPropertyOp0
 70
     1
102
RTVSPropertyOp1
 70
     1
102
RTVSPropertyOp2
 70
     1
102
RTVSPropertyOp3
 70
     1
102
RTVSPropertyOp4
 70
     1
102
RTVSPropertyOp5
 70
     1
102
RTVSPropertyOp6
 70
     1
102
RTVSPropertyOp7
 70
     1
102
RTVSPropertyOp8
 70
     1
102
RTVSPropertyOp9
 70
     1
102
RTVSPropertyOp10
 70
     1
102
RTVSPropertyOp11
 70
     1
102
RTVSPropertyOp12
 70
     1
102
RTVSPropertyOp13
 70
     1
102
RTVSPropertyOp14
 70
     1
102
RTVSPropertyOp15
 70
     1
102
RTVSPropertyOp16
 70
     1
102
RTVSPropertyOp17
 70
     1
102
RTVSPropertyOp18
 70
     1
102
RTVSPropertyOp19
 70
     1
102
RTVSPropertyOp20
 70
     1
102
RTVSPropertyOp21
 70
     1
102
RTVSPropertyOp22
 70
     1
102
RTVSPropertyOp23
 70
     1
102
RTVSPropertyOp24
 70
     1
102
RTVSPropertyOp25
 70
     1
102
RTVSPropertyOp26
 70
     1
102
RTVSPropertyOp27
 70
     1
  0
XRECORD
  5
10D2
102
{ACAD_REACTORS
330
10D1
102
}
330
10D1
100
AcDbXrecord
280
     1
102
RTVSPropertyOp0
 70
     1
102
RTVSPropertyOp1
 70
     1
102
RTVSPropertyOp2
 70
     1
102
RTVSPropertyOp3
 70
     1
102
RTVSPropertyOp4
 70
     1
102
RTVSPropertyOp5
 70
     1
102
RTVSPropertyOp6
 70
     1
102
RTVSPropertyOp7
 70
     1
102
RTVSPropertyOp8
 70
     1
102
RTVSPropertyOp9
 70
     1
102
RTVSPropertyOp10
 70
     1
102
RTVSPropertyOp11
 70
     1
102
RTVSPropertyOp12
 70
     1
102
RTVSPropertyOp13
 70
     1
102
RTVSPropertyOp14
 70
     1
102
RTVSPropertyOp15
 70
     1
102
RTVSPropertyOp16
 70
     1
102
RTVSPropertyOp17
 70
     1
102
RTVSPropertyOp18
 70
     1
102
RTVSPropertyOp19
 70
     1
102
RTVSPropertyOp20
 70
     1
102
RTVSPropertyOp21
 70
     1
102
RTVSPropertyOp22
 70
     1
102
RTVSPropertyOp23
 70
     1
102
RTVSPropertyOp24
 70
     1
102
RTVSPropertyOp25
 70
     1
102
RTVSPropertyOp26
 70
     1
102
RTVSPropertyOp27
 70
     1
  0
XRECORD
  5
10EC
102
{ACAD_REACTORS
330
10EB
102
}
330
10EB
100
AcDbXrecord
280
     1
102
RTVSPropertyOp0
 70
     0
102
RTVSPropertyOp1
 70
     0
102
RTVSPropertyOp2
 70
     0
102
RTVSPropertyOp3
 70
     0
102
RTVSPropertyOp4
 70
     0
102
RTVSPropertyOp5
 70
     0
102
RTVSPropertyOp6
 70
     0
102
RTVSPropertyOp7
 70
     0
102
RTVSPropertyOp8
 70
     0
102
RTVSPropertyOp9
 70
     0
102
RTVSPropertyOp10
 70
     0
102
RTVSPropertyOp11
 70
     0
102
RTVSPropertyOp12
 70
     0
102
RTVSPropertyOp13
 70
     0
102
RTVSPropertyOp14
 70
     2
102
RTVSPropertyOp15
 70
     0
102
RTVSPropertyOp16
 70
     0
102
RTVSPropertyOp17
 70
     0
102
RTVSPropertyOp18
 70
     0
102
RTVSPropertyOp19
 70
     0
102
RTVSPropertyOp20
 70
     0
102
RTVSPropertyOp21
 70
     0
102
RTVSPropertyOp22
 70
     0
102
RTVSPropertyOp23
 70
     0
102
RTVSPropertyOp24
 70
     0
102
RTVSPropertyOp25
 70
     0
102
RTVSPropertyOp26
 70
     0
102
RTVSPropertyOp27
 70
     0
  0
XRECORD
  5
10E6
102
{ACAD_REACTORS
330
10E5
102
}
330
10E5
100
AcDbXrecord
280
     1
102
RTVSPropertyOp0
 70
     1
102
RTVSPropertyOp1
 70
     1
102
RTVSPropertyOp2
 70
     1
102
RTVSPropertyOp3
 70
     1
102
RTVSPropertyOp4
 70
     1
102
RTVSPropertyOp5
 70
     1
102
RTVSPropertyOp6
 70
     1
102
RTVSPropertyOp7
 70
     1
102
RTVSPropertyOp8
 70
     1
102
RTVSPropertyOp9
 70
     1
102
RTVSPropertyOp10
 70
     1
102
RTVSPropertyOp11
 70
     1
102
RTVSPropertyOp12
 70
     1
102
RTVSPropertyOp13
 70
     1
102
RTVSPropertyOp14
 70
     1
102
RTVSPropertyOp15
 70
     1
102
RTVSPropertyOp16
 70
     1
102
RTVSPropertyOp17
 70
     1
102
RTVSPropertyOp18
 70
     1
102
RTVSPropertyOp19
 70
     1
102
RTVSPropertyOp20
 70
     1
102
RTVSPropertyOp21
 70
     1
102
RTVSPropertyOp22
 70
     1
102
RTVSPropertyOp23
 70
     1
102
RTVSPropertyOp24
 70
     1
102
RTVSPropertyOp25
 70
     1
102
RTVSPropertyOp26
 70
     1
102
RTVSPropertyOp27
 70
     1
  0
XRECORD
  5
10EE
102
{ACAD_REACTORS
330
10ED
102
}
330
10ED
100
AcDbXrecord
280
     1
102
RTVSPropertyOp0
 70
     0
102
RTVSPropertyOp1
 70
     0
102
RTVSPropertyOp2
 70
     0
102
RTVSPropertyOp3
 70
     0
102
RTVSPropertyOp4
 70
     0
102
RTVSPropertyOp5
 70
     0
102
RTVSPropertyOp6
 70
     0
102
RTVSPropertyOp7
 70
     0
102
RTVSPropertyOp8
 70
     0
102
RTVSPropertyOp9
 70
     0
102
RTVSPropertyOp10
 70
     0
102
RTVSPropertyOp11
 70
     0
102
RTVSPropertyOp12
 70
     0
102
RTVSPropertyOp13
 70
     0
102
RTVSPropertyOp14
 70
     2
102
RTVSPropertyOp15
 70
     0
102
RTVSPropertyOp16
 70
     0
102
RTVSPropertyOp17
 70
     0
102
RTVSPropertyOp18
 70
     0
102
RTVSPropertyOp19
 70
     0
102
RTVSPropertyOp20
 70
     0
102
RTVSPropertyOp21
 70
     0
102
RTVSPropertyOp22
 70
     0
102
RTVSPropertyOp23
 70
     0
102
RTVSPropertyOp24
 70
     0
102
RTVSPropertyOp25
 70
     0
102
RTVSPropertyOp26
 70
     0
102
RTVSPropertyOp27
 70
     0
  0
XRECORD
  5
10DE
102
{ACAD_REACTORS
330
10DD
102
}
330
10DD
100
AcDbXrecord
280
     1
102
RTVSPropertyOp0
 70
     1
102
RTVSPropertyOp1
 70
     1
102
RTVSPropertyOp2
 70
     1
102
RTVSPropertyOp3
 70
     1
102
RTVSPropertyOp4
 70
     1
102
RTVSPropertyOp5
 70
     1
102
RTVSPropertyOp6
 70
     1
102
RTVSPropertyOp7
 70
     1
102
RTVSPropertyOp8
 70
     1
102
RTVSPropertyOp9
 70
     1
102
RTVSPropertyOp10
 70
     1
102
RTVSPropertyOp11
 70
     1
102
RTVSPropertyOp12
 70
     1
102
RTVSPropertyOp13
 70
     1
102
RTVSPropertyOp14
 70
     1
102
RTVSPropertyOp15
 70
     1
102
RTVSPropertyOp16
 70
     1
102
RTVSPropertyOp17
 70
     1
102
RTVSPropertyOp18
 70
     1
102
RTVSPropertyOp19
 70
     1
102
RTVSPropertyOp20
 70
     1
102
RTVSPropertyOp21
 70
     1
102
RTVSPropertyOp22
 70
     1
102
RTVSPropertyOp23
 70
     1
102
RTVSPropertyOp24
 70
     1
102
RTVSPropertyOp25
 70
     1
102
RTVSPropertyOp26
 70
     1
102
RTVSPropertyOp27
 70
     1
  0
XRECORD
  5
10E4
102
{ACAD_REACTORS
330
10E3
102
}
330
10E3
100
AcDbXrecord
280
     1
102
RTVSPropertyOp0
 70
     1
102
RTVSPropertyOp1
 70
     1
102
RTVSPropertyOp2
 70
     1
102
RTVSPropertyOp3
 70
     1
102
RTVSPropertyOp4
 70
     1
102
RTVSPropertyOp5
 70
     1
102
RTVSPropertyOp6
 70
     1
102
RTVSPropertyOp7
 70
     1
102
RTVSPropertyOp8
 70
     1
102
RTVSPropertyOp9
 70
     1
102
RTVSPropertyOp10
 70
     1
102
RTVSPropertyOp11
 70
     1
102
RTVSPropertyOp12
 70
     1
102
RTVSPropertyOp13
 70
     1
102
RTVSPropertyOp14
 70
     1
102
RTVSPropertyOp15
 70
     1
102
RTVSPropertyOp16
 70
     1
102
RTVSPropertyOp17
 70
     1
102
RTVSPropertyOp18
 70
     1
102
RTVSPropertyOp19
 70
     1
102
RTVSPropertyOp20
 70
     1
102
RTVSPropertyOp21
 70
     1
102
RTVSPropertyOp22
 70
     1
102
RTVSPropertyOp23
 70
     1
102
RTVSPropertyOp24
 70
     1
102
RTVSPropertyOp25
 70
     1
102
RTVSPropertyOp26
 70
     1
102
RTVSPropertyOp27
 70
     1
  0
ENDSEC
  0
EOF
